<?xml version="1.0" standalone="no"?>
<!DOCTYPE svg PUBLIC "-//W3C//DTD SVG 1.1//EN" "http://www.w3.org/Graphics/SVG/1.1/DTD/svg11.dtd" >
<svg xmlns="http://www.w3.org/2000/svg" xmlns:xlink="http://www.w3.org/1999/xlink" version="1.1">
<metadata>
Created by FontForge 20170910 at Mon Mar 25 18:05:50 2019
 By Jimmy Wärting
Copyright 2018-2019 Mikhail Sharanda
</metadata>
<defs>
<font id="Manrope3-Bold" horiz-adv-x="280" >
  <font-face 
    font-family="Manrope3 Bold"
    font-weight="700"
    font-stretch="normal"
    units-per-em="960"
    panose-1="0 0 8 0 0 0 0 0 0 0"
    ascent="768"
    descent="-192"
    x-height="540"
    cap-height="720"
    bbox="-30 -287 1099 997"
    underline-thickness="50"
    underline-position="-100"
    unicode-range="U+0020-FB02"
  />
<missing-glyph horiz-adv-x="740" 
d="M640 720v-13h-540v13h540zM640 665v-16h-540v16h540zM640 610v-18h-540v18h540zM640 554v-21h-540v21h540zM640 498v-22h-540v22h540zM640 443v-24h-540v24h540zM640 388v-28h-540v28h540zM640 333v-30h-540v30h540zM640 278v-33h-540v33h540zM640 222v-35h-540v35h540z
M640 167v-37h-540v37h540zM640 112v-40h-540v40h540zM640 0h-540v57h540v-57z" />
    <glyph glyph-name="f_f" unicode="ff" horiz-adv-x="715" 
d="M642 637c-46 0 -68 -25 -68 -62v-35h131v-94h-131v-446h-120v446h-216v-446h-121v446h-87v94h87v9c0 41 -1 98 36 139c45 51 108 47 148 47h67v-98h-62c-47 0 -68 -25 -68 -62v-35h216v9c0 41 -2 98 35 139c46 51 109 47 148 47h68v-98h-63z" />
    <glyph glyph-name="f_f_l" unicode="ffl" horiz-adv-x="1026" 
d="M826 735h120v-735h-120v446h-252v-446h-120v446h-216v-446h-121v446h-87v94h87v9c0 41 -1 98 36 139c45 51 108 47 148 47h67v-98h-62c-47 0 -68 -25 -68 -62v-35h216v9c0 41 -2 98 35 139c46 51 109 47 148 47h68v-98h-63c-46 0 -68 -25 -68 -62v-35h252v195z" />
    <glyph glyph-name="fl" unicode="fl" horiz-adv-x="689" 
d="M489 735h120v-735h-120v446h-251v-446h-121v446h-87v94h87v9c0 41 -1 98 36 139c45 51 108 47 148 47h67v-98h-62c-47 0 -68 -25 -68 -62v-35h251v195z" />
    <glyph glyph-name="t_t" unicode="tt" horiz-adv-x="806" 
d="M601 446v-219c0 -42 -2 -76 11 -97c13 -22 37 -31 59 -33c27 -2 60 0 89 4v-101c-41 -11 -109 -11 -148 -4c-49 8 -81 25 -108 68c-28 42 -23 95 -23 157v225h-253v-219c0 -42 -2 -76 11 -97c13 -22 37 -31 59 -33c27 -2 60 0 89 4v-101c-41 -11 -109 -11 -148 -4
c-49 8 -81 25 -109 68c-27 42 -22 95 -22 157v225h-98v94h98v150h120v-150h253v150h120v-150h159v-94h-159z" />
    <glyph glyph-name="parenleft_greater_parenright.liga" unicode="&#x28;&#x3e;&#x29;" horiz-adv-x="1070" 
d="M535 -135c274 0 495 221 495 495s-221 495 -495 495s-495 -221 -495 -495s221 -495 495 -495zM535 -22c-212 0 -382 170 -382 382s170 382 382 382s382 -170 382 -382s-170 -382 -382 -382zM465 535l210 -175l-210 -175v350z" />
    <glyph glyph-name="parenleft_c_parenright.liga" unicode="&#x28;c&#x29;" horiz-adv-x="906" 
d="M453 -68c229 0 413 185 413 413s-184 413 -413 413c-228 0 -413 -185 -413 -413s185 -413 413 -413zM453 45c-166 0 -300 134 -300 300s134 300 300 300s300 -134 300 -300s-134 -300 -300 -300zM642 428l-92 -24c-6 18 -16 36 -33 49c-16 13 -36 19 -56 19
c-32 0 -58 -13 -76 -36c-19 -25 -24 -58 -24 -91s5 -65 24 -90c17 -24 44 -36 76 -36c20 0 41 3 58 17c15 13 22 27 29 45l94 -20c-12 -37 -35 -73 -66 -95c-35 -25 -65 -34 -115 -34c-65 0 -114 21 -149 66c-35 44 -49 93 -49 147c0 56 15 107 49 146c37 45 85 67 151 67
c42 0 70 -6 104 -26c36 -22 64 -57 75 -104z" />
    <glyph glyph-name="space_less_three_space.liga" unicode="&#x20;&#x3c;&#x33;&#x20;" horiz-adv-x="1203" 
d="M704 555c53 0 102 -22 141 -64c39 -41 58 -93 58 -146c0 -52 -19 -104 -58 -145l-175 -185c-18 -19 -43 -30 -69 -30c-25 0 -50 11 -68 30l-175 185c-38 41 -58 92 -58 144c0 53 19 105 58 147c49 52 102 64 141 64c35 0 69 -10 102 -30c38 23 74 30 103 30zM704 461
c-33 0 -68 -18 -103 -56c-35 38 -70 56 -102 56c-26 0 -51 -12 -72 -35c-22 -22 -32 -52 -32 -80c0 -30 11 -60 32 -81l174 -185l176 185c21 22 31 51 31 81c0 29 -10 58 -31 80c-22 23 -47 35 -73 35z" />
    <glyph glyph-name="arrowright" unicode="&#x2d;&#x3e;" horiz-adv-x="1012" 
d="M632 555l240 -240l-240 -240l-57 58l135 135h-570v95l570 -1l-135 135z" />
    <glyph glyph-name="arrowleft" unicode="&#x3c;&#x2d;" horiz-adv-x="1012" 
d="M872 363v-95h-570l135 -135l-57 -58l-240 240l240 240l57 -58l-135 -135z" />
    <glyph glyph-name=".notdef" horiz-adv-x="740" 
d="M640 720v-13h-540v13h540zM640 665v-16h-540v16h540zM640 610v-18h-540v18h540zM640 554v-21h-540v21h540zM640 498v-22h-540v22h540zM640 443v-24h-540v24h540zM640 388v-28h-540v28h540zM640 333v-30h-540v30h540zM640 278v-33h-540v33h540zM640 222v-35h-540v35h540z
M640 167v-37h-540v37h540zM640 112v-40h-540v40h540zM640 0h-540v57h540v-57z" />
    <glyph glyph-name="A" unicode="A" horiz-adv-x="671" 
d="M527 0l-50 156h-284l-49 -156h-124l227 720h177l227 -720h-124zM229 269h212l-107 334z" />
    <glyph glyph-name="Aacute" unicode="&#xc1;" horiz-adv-x="671" 
d="M476 881l-267 -96l-31 88l268 96zM527 0l-50 156h-284l-49 -156h-124l227 720h177l227 -720h-124zM229 269h212l-107 334z" />
    <glyph glyph-name="Abreve" unicode="&#x102;" horiz-adv-x="671" 
d="M336 780c-84 0 -152 68 -152 152h94c0 -32 26 -58 58 -58s57 26 57 58h94c0 -84 -67 -152 -151 -152zM527 0l-50 156h-284l-49 -156h-124l227 720h177l227 -720h-124zM229 269h212l-107 334z" />
    <glyph glyph-name="Acircumflex" unicode="&#xc2;" horiz-adv-x="671" 
d="M336 855l-127 -69l-44 83l171 93l170 -93l-43 -83zM527 0l-50 156h-284l-49 -156h-124l227 720h177l227 -720h-124zM229 269h212l-107 334z" />
    <glyph glyph-name="Adieresis" unicode="&#xc4;" horiz-adv-x="671" 
d="M288 950v-110h-110v110h110zM494 950v-110h-110v110h110zM527 0l-50 156h-284l-49 -156h-124l227 720h177l227 -720h-124zM229 269h212l-107 334z" />
    <glyph glyph-name="Agrave" unicode="&#xc0;" horiz-adv-x="671" 
d="M494 873l-32 -88l-267 96l30 88zM527 0l-49 156h-283l-50 -156h-125l227 720h177l227 -720h-124zM231 269h211l-105 334z" />
    <glyph glyph-name="Amacron" unicode="&#x100;" horiz-adv-x="671" 
d="M469 934v-94h-266v94h266zM527 0l-50 156h-284l-49 -156h-124l227 720h177l227 -720h-124zM229 269h212l-107 334z" />
    <glyph glyph-name="Aogonek" unicode="&#x104;" horiz-adv-x="671" 
d="M546 -140c13 -17 42 -7 60 7l43 -56c-10 -17 -26 -32 -47 -41c-45 -22 -99 -7 -130 32c-27 30 -33 81 -15 126c13 33 37 63 65 87l-45 141h-284l-49 -156h-124l227 720h177l227 -720h-16c-20 -14 -39 -30 -53 -48c-17 -17 -31 -37 -39 -56c-2 -7 -7 -26 3 -36zM229 269
h212l-107 334z" />
    <glyph glyph-name="Aring" unicode="&#xc5;" horiz-adv-x="671" 
d="M527 0l-50 156h-284l-49 -156h-124l213 677c-26 26 -43 63 -43 103c0 80 66 146 146 146s146 -66 146 -146c0 -41 -17 -78 -44 -104l213 -676h-124zM336 840c-33 0 -60 -27 -60 -60s27 -60 60 -60s60 27 60 60s-27 60 -60 60zM229 269h212l-107 334z" />
    <glyph glyph-name="Atilde" unicode="&#xc3;" horiz-adv-x="671" 
d="M242 847h-72c-6 26 -3 58 9 79c13 21 34 36 57 41c33 8 67 0 98 -16c27 -12 51 -30 75 -28c23 2 27 21 21 38h72c5 -26 3 -59 -10 -79c-12 -21 -33 -37 -56 -42c-34 -8 -67 1 -99 16c-26 13 -50 30 -74 28c-23 -2 -27 -19 -21 -37zM527 0l-50 156h-284l-49 -156h-124
l227 720h177l227 -720h-124zM229 269h212l-107 334z" />
    <glyph glyph-name="AE" unicode="&#xc6;" horiz-adv-x="938" 
d="M888 607h-344v-178h284v-112h-284v-204h344v-113h-465v120h-241l-38 -120h-124l227 720h641v-113zM218 233h205v367h-89z" />
    <glyph glyph-name="B" unicode="B" horiz-adv-x="639" 
d="M547 346c34 -31 55 -82 54 -131c0 -61 -17 -119 -59 -159c-43 -42 -86 -56 -173 -56h-299v720h285c62 0 110 -14 152 -54c42 -39 60 -90 61 -147c1 -49 -20 -94 -49 -120c-8 -8 -17 -14 -26 -20c20 -8 38 -19 54 -33zM354 607h-162v-174h162c32 0 56 11 73 30
c14 16 18 37 18 58c0 22 -7 45 -24 62s-40 24 -67 24zM450 144c20 19 29 43 29 71c0 26 -7 53 -25 73c-23 25 -56 32 -81 32h-181v-206h178c34 0 58 9 80 30z" />
    <glyph glyph-name="C" unicode="C" horiz-adv-x="731" 
d="M577 242l118 -29c-17 -57 -44 -110 -98 -156c-61 -53 -136 -72 -220 -72c-105 0 -196 41 -255 117c-58 75 -82 165 -82 258c0 98 22 188 81 259c63 78 153 116 256 116c86 0 160 -21 219 -73c59 -50 88 -109 104 -174l-121 -17c-8 27 -20 52 -36 74
c-39 51 -92 75 -158 76s-129 -25 -166 -76c-40 -50 -53 -118 -52 -185c1 -66 11 -133 52 -185c37 -51 100 -75 166 -76c65 -1 120 25 158 76c15 20 26 43 34 67z" />
    <glyph glyph-name="Cacute" unicode="&#x106;" horiz-adv-x="731" 
d="M271 785l267 96l-30 88l-268 -96zM577 242l118 -29c-17 -57 -44 -110 -98 -156c-61 -53 -136 -72 -220 -72c-105 0 -196 41 -255 117c-58 75 -82 165 -82 258c0 98 22 188 81 259c63 78 153 116 256 116c86 0 160 -21 219 -73c59 -50 88 -109 104 -174l-121 -17
c-8 27 -20 52 -36 74c-39 51 -92 75 -158 76s-129 -25 -166 -76c-40 -50 -53 -118 -52 -185c1 -66 11 -133 52 -185c37 -51 100 -75 166 -76c65 -1 120 25 158 76c15 20 26 43 34 67z" />
    <glyph glyph-name="Ccaron" unicode="&#x10c;" horiz-adv-x="731" 
d="M264 962l-43 -82l170 -94l171 94l-44 82l-127 -69zM577 242l118 -29c-17 -57 -44 -110 -98 -156c-61 -53 -136 -72 -220 -72c-105 0 -196 41 -255 117c-58 75 -82 165 -82 258c0 98 22 188 81 259c63 78 153 116 256 116c86 0 160 -21 219 -73c59 -50 88 -109 104 -174
l-121 -17c-8 27 -20 52 -36 74c-39 51 -92 75 -158 76s-129 -25 -166 -76c-40 -50 -53 -118 -52 -185c1 -66 11 -133 52 -185c37 -51 100 -75 166 -76c65 -1 120 25 158 76c15 20 26 43 34 67z" />
    <glyph glyph-name="Ccedilla" unicode="&#xc7;" horiz-adv-x="731" 
d="M543 175c15 20 26 43 34 67l118 -29c-17 -57 -44 -110 -98 -156c-51 -44 -112 -65 -179 -70l-10 -29c18 -9 36 -23 48 -43c19 -33 16 -80 -5 -110c-23 -33 -59 -50 -99 -46c-22 2 -40 9 -57 18l26 71c13 -4 23 -7 32 -7c11 0 21 4 26 12c5 7 7 14 4 23
c-6 21 -32 28 -64 37l26 73c-91 8 -170 48 -223 116c-58 75 -82 165 -82 258c0 98 22 188 81 259c63 78 153 116 256 116c86 0 160 -21 219 -73c59 -50 88 -109 104 -174l-121 -17c-8 27 -20 52 -36 74c-39 51 -92 75 -158 76s-129 -25 -166 -76c-40 -50 -53 -118 -52 -185
c1 -66 11 -133 52 -185c37 -51 100 -75 166 -76c65 -1 120 25 158 76z" />
    <glyph glyph-name="Cdotaccent" unicode="&#x10a;" horiz-adv-x="731" 
d="M318 975h123v-123h-123v123zM577 242l118 -29c-17 -57 -44 -110 -98 -156c-61 -53 -136 -72 -220 -72c-105 0 -196 41 -255 117c-58 75 -82 165 -82 258c0 98 22 188 81 259c63 78 153 116 256 116c86 0 160 -21 219 -73c59 -50 88 -109 104 -174l-121 -17
c-8 27 -20 52 -36 74c-39 51 -92 75 -158 76s-129 -25 -166 -76c-40 -50 -53 -118 -52 -185c1 -66 11 -133 52 -185c37 -51 100 -75 166 -76c65 -1 120 25 158 76c15 20 26 43 34 67z" />
    <glyph glyph-name="D" unicode="D" horiz-adv-x="700" 
d="M652 360c0 181 -93 335 -265 356c-26 3 -55 4 -88 4h-229v-720h229c33 0 62 1 88 4c172 21 265 175 265 356zM525 360c0 -116 -43 -218 -146 -241c-18 -4 -50 -5 -80 -5h-106v492h106c30 0 62 -1 80 -5c103 -23 146 -125 146 -241z" />
    <glyph glyph-name="Eth" unicode="&#xd0;" horiz-adv-x="702" 
d="M388 716c173 -21 266 -175 266 -356s-93 -335 -266 -356c-25 -3 -55 -4 -87 -4h-229v313h-62v95h62v312h229c32 0 62 -1 87 -4zM381 119c103 23 145 125 145 241s-42 218 -145 241c-19 4 -51 5 -80 5h-107v-198h154v-95h-154v-199h107c29 0 61 1 80 5z" />
    <glyph glyph-name="Dcaron" unicode="&#x10e;" horiz-adv-x="700" 
d="M165 962l-44 -82l171 -94l170 94l-43 82l-127 -69zM652 360c0 181 -93 335 -265 356c-26 3 -55 4 -88 4h-229v-720h229c33 0 62 1 88 4c172 21 265 175 265 356zM525 360c0 -116 -43 -218 -146 -241c-18 -4 -50 -5 -80 -5h-106v492h106c30 0 62 -1 80 -5
c103 -23 146 -125 146 -241z" />
    <glyph glyph-name="Dcroat" unicode="&#x110;" horiz-adv-x="702" 
d="M388 716c173 -21 266 -175 266 -356s-93 -335 -266 -356c-25 -3 -55 -4 -87 -4h-229v313h-62v95h62v312h229c32 0 62 -1 87 -4zM381 119c103 23 145 125 145 241s-42 218 -145 241c-19 4 -51 5 -80 5h-107v-198h154v-95h-154v-199h107c29 0 61 1 80 5z" />
    <glyph glyph-name="E" unicode="E" horiz-adv-x="585" 
d="M535 607h-345v-178h285v-112h-285v-204h345v-113h-465v720h465v-113z" />
    <glyph glyph-name="Eacute" unicode="&#xc9;" horiz-adv-x="585" 
d="M444 881l-267 -96l-31 88l268 96zM535 607h-345v-178h285v-112h-285v-204h345v-113h-465v720h465v-113z" />
    <glyph glyph-name="Ecaron" unicode="&#x11a;" horiz-adv-x="585" 
d="M477 880l-170 -94l-171 94l44 82l127 -69l126 69zM535 607h-345v-178h285v-112h-285v-204h345v-113h-465v720h465v-113z" />
    <glyph glyph-name="Ecircumflex" unicode="&#xca;" horiz-adv-x="585" 
d="M297 855l-127 -69l-44 83l171 93l170 -93l-44 -83zM535 607h-345v-178h285v-112h-285v-204h345v-113h-465v720h465v-113z" />
    <glyph glyph-name="Edieresis" unicode="&#xcb;" horiz-adv-x="585" 
d="M251 950v-110h-110v110h110zM458 950v-110h-110v110h110zM535 607h-345v-178h285v-112h-285v-204h345v-113h-465v720h465v-113z" />
    <glyph glyph-name="Edotaccent" unicode="&#x116;" horiz-adv-x="585" 
d="M364 950v-123h-123v123h123zM535 607h-345v-178h285v-112h-285v-204h345v-113h-465v720h465v-113z" />
    <glyph glyph-name="Egrave" unicode="&#xc8;" horiz-adv-x="585" 
d="M455 873l-31 -88l-267 96l30 88zM535 607h-345v-178h285v-112h-285v-204h345v-113h-465v720h465v-113z" />
    <glyph glyph-name="Emacron" unicode="&#x112;" horiz-adv-x="585" 
d="M440 934v-94h-267v94h267zM535 607h-345v-178h285v-112h-285v-204h345v-113h-465v720h465v-113z" />
    <glyph glyph-name="Eogonek" unicode="&#x118;" horiz-adv-x="585" 
d="M506 -133l44 -56c-11 -17 -27 -32 -48 -41c-44 -22 -99 -7 -129 32c-28 30 -33 81 -16 126c11 27 28 51 49 72h-336v720h465v-113h-345v-178h285v-112h-285v-204h345v-113c-19 -14 -39 -30 -53 -48c-16 -17 -30 -37 -38 -56c-3 -7 -8 -26 3 -36c13 -17 42 -7 59 7z" />
    <glyph glyph-name="F" unicode="F" horiz-adv-x="523" 
d="M503 600h-313v-180h253v-120h-253v-300h-120v720h433v-120z" />
    <glyph glyph-name="G" unicode="G" horiz-adv-x="755" 
d="M714 378l1 -38c0 -99 -32 -185 -85 -248c-64 -76 -155 -107 -253 -107c-105 0 -197 41 -256 118c-57 76 -81 164 -81 257c0 97 22 187 81 259c63 78 152 116 256 116c86 0 160 -20 219 -73c56 -46 84 -101 99 -162l-131 -20c-9 28 -21 55 -47 80c-33 33 -79 51 -132 51
c-63 0 -124 -25 -160 -74c-37 -48 -48 -113 -49 -177c1 -64 11 -127 49 -177c36 -49 97 -74 160 -73c52 -1 98 17 132 51c34 33 52 81 57 122h-150v95h290z" />
    <glyph glyph-name="Gbreve" unicode="&#x11e;" horiz-adv-x="755" 
d="M384 780c-84 0 -152 68 -152 152h94c0 -32 26 -58 58 -58s57 26 57 58h94c0 -84 -67 -152 -151 -152zM714 378l1 -38c0 -99 -32 -185 -85 -248c-64 -76 -155 -107 -253 -107c-105 0 -197 41 -256 118c-57 76 -81 164 -81 257c0 97 22 187 81 259c63 78 152 116 256 116
c86 0 160 -20 219 -73c56 -46 84 -101 99 -162l-131 -20c-9 28 -21 55 -47 80c-33 33 -79 51 -132 51c-63 0 -124 -25 -160 -74c-37 -48 -48 -113 -49 -177c1 -64 11 -127 49 -177c36 -49 97 -74 160 -73c52 -1 98 17 132 51c34 33 52 81 57 122h-150v95h290z" />
    <glyph glyph-name="uni0122" unicode="&#x122;" horiz-adv-x="755" 
d="M714 378l1 -38c0 -99 -32 -185 -85 -248c-64 -76 -155 -107 -253 -107c-105 0 -197 41 -256 118c-57 76 -81 164 -81 257c0 97 22 187 81 259c63 78 152 116 256 116c86 0 160 -20 219 -73c56 -46 84 -101 99 -162l-131 -20c-9 28 -21 55 -47 80c-33 33 -79 51 -132 51
c-63 0 -124 -25 -160 -74c-37 -48 -48 -113 -49 -177c1 -64 11 -127 49 -177c36 -49 97 -74 160 -73c52 -1 98 17 132 51c34 33 52 81 57 122h-150v95h290zM326 -182v117h116v-117c0 -63 -49 -105 -116 -105v53c15 0 65 6 64 52h-64z" />
    <glyph glyph-name="Gdotaccent" unicode="&#x120;" horiz-adv-x="755" 
d="M440 950v-123h-124v123h124zM714 378l1 -38c0 -99 -32 -185 -85 -248c-64 -76 -155 -107 -253 -107c-105 0 -197 41 -256 118c-57 76 -81 164 -81 257c0 97 22 187 81 259c63 78 152 116 256 116c86 0 160 -20 219 -73c56 -46 84 -101 99 -162l-131 -20
c-9 28 -21 55 -47 80c-33 33 -79 51 -132 51c-63 0 -124 -25 -160 -74c-37 -48 -48 -113 -49 -177c1 -64 11 -127 49 -177c36 -49 97 -74 160 -73c52 -1 98 17 132 51c34 33 52 81 57 122h-150v95h290z" />
    <glyph glyph-name="H" unicode="H" horiz-adv-x="722" 
d="M531 720h121v-720h-121v304h-341v-304h-120v720h120v-303h341v303z" />
    <glyph glyph-name="Hbar" unicode="&#x126;" horiz-adv-x="742" 
d="M732 603v-120h-80v-483h-121v304h-341v-304h-120v483h-60v120h60v117h120v-117h341v117h121v-117h80zM531 417v66h-341v-66h341z" />
    <glyph glyph-name="I" unicode="I" 
d="M80 720h120v-720h-120v720z" />
    <glyph glyph-name="Iacute" unicode="&#xcd;" 
d="M17 785l267 96l-30 88l-269 -96zM80 720h120v-720h-120v720z" />
    <glyph glyph-name="Icircumflex" unicode="&#xce;" 
d="M13 786l127 69l127 -69l44 83l-171 93l-170 -93zM80 720h120v-720h-120v720z" />
    <glyph glyph-name="Idieresis" unicode="&#xcf;" 
d="M-18 950h110v-110h-110v110zM189 950h110v-110h-110v110zM80 720h120v-720h-120v720z" />
    <glyph glyph-name="Idotaccent" unicode="&#x130;" 
d="M79 950h123v-123h-123v123zM80 720h120v-720h-120v720z" />
    <glyph glyph-name="Igrave" unicode="&#xcc;" 
d="M263 785l31 88l-268 96l-31 -88zM80 720h120v-720h-120v720z" />
    <glyph glyph-name="Imacron" unicode="&#x12a;" 
d="M7 934h267v-94h-267v94zM80 720h120v-720h-120v720z" />
    <glyph glyph-name="Iogonek" unicode="&#x12e;" 
d="M171 -133l44 -56c-10 -17 -26 -32 -48 -41c-44 -22 -99 -7 -129 32c-27 30 -33 81 -16 126c13 30 33 57 58 80v712h120v-720c-19 -14 -38 -30 -53 -48c-16 -17 -30 -37 -38 -56c-3 -7 -7 -26 3 -36c13 -17 42 -7 59 7z" />
    <glyph glyph-name="J" unicode="J" horiz-adv-x="501" 
d="M421 720h-122v-485c0 -40 0 -67 -10 -89c-13 -32 -50 -48 -80 -48c-42 0 -83 34 -90 75l-119 -29c28 -95 106 -159 209 -159c86 0 147 31 188 98c27 50 24 83 24 152v485z" />
    <glyph glyph-name="K" unicode="K" horiz-adv-x="649" 
d="M70 0v720h122v-334l288 334h148l-310 -353l331 -367h-153l-304 336v-336h-122z" />
    <glyph glyph-name="uni0136" unicode="&#x136;" horiz-adv-x="649" 
d="M70 0v720h122v-334l288 334h148l-310 -353l331 -367h-153l-304 336v-336h-122zM410 -182c0 -63 -50 -105 -117 -105v53c15 0 65 6 64 52h-64v117h117v-117z" />
    <glyph glyph-name="L" unicode="L" horiz-adv-x="533" 
d="M200 720h-120v-720h438v113h-318v607z" />
    <glyph glyph-name="Lacute" unicode="&#x139;" horiz-adv-x="533" 
d="M111 785l268 96l-31 88l-268 -96zM200 720h-120v-720h438v113h-318v607z" />
    <glyph glyph-name="Lcaron" unicode="&#x13d;" horiz-adv-x="533" 
d="M450 588c0 -86 -41 -136 -124 -122l7 52c46 -4 63 30 57 75h-64v129h124v-134zM200 720h-120v-720h438v113h-318v607z" />
    <glyph glyph-name="uni013B" unicode="&#x13b;" horiz-adv-x="533" 
d="M200 720h-120v-720h438v113h-318v607zM358 -182c0 -63 -50 -105 -117 -105v53c15 0 65 6 64 52h-64v117h117v-117z" />
    <glyph glyph-name="Lslash" unicode="&#x141;" horiz-adv-x="550" 
d="M217 113h318v-113h-438v209l-65 -37v130l65 37v381h120v-312l158 91v-130l-158 -91v-165z" />
    <glyph glyph-name="M" unicode="M" horiz-adv-x="855" 
d="M785 720v-720h-113v462l-220 -462h-48l-221 461v-461h-113v720h108l250 -510l249 510h108z" />
    <glyph glyph-name="N" unicode="N" horiz-adv-x="718" 
d="M192 720l334 -507v507h122v-720h-122l-334 508v-508h-122v720h122z" />
    <glyph glyph-name="Nacute" unicode="&#x143;" horiz-adv-x="718" 
d="M265 785l268 96l-31 88l-268 -96zM192 720l334 -507v507h122v-720h-122l-334 508v-508h-122v720h122z" />
    <glyph glyph-name="Ncaron" unicode="&#x147;" horiz-adv-x="718" 
d="M243 962l-43 -82l170 -94l171 94l-44 82l-127 -69zM192 720l334 -507v507h122v-720h-122l-334 508v-508h-122v720h122z" />
    <glyph glyph-name="uni0145" unicode="&#x145;" horiz-adv-x="718" 
d="M192 720l334 -507v507h122v-720h-122l-334 508v-508h-122v720h122zM428 -182c0 -63 -50 -105 -117 -105v53c15 0 65 6 64 52h-64v117h117v-117z" />
    <glyph glyph-name="Eng" unicode="&#x14a;" horiz-adv-x="718" 
d="M526 720h122v-809c0 -76 -33 -124 -90 -136c-45 -9 -88 -3 -121 5v90c36 -4 111 -15 111 64c0 13 -4 35 -17 66h-5l-334 508v-508h-122v720h122l334 -507v507z" />
    <glyph glyph-name="Ntilde" unicode="&#xd1;" horiz-adv-x="718" 
d="M536 936c6 -26 3 -59 -9 -79c-13 -21 -34 -37 -57 -42c-33 -8 -67 1 -98 16c-27 13 -51 30 -75 28c-23 -2 -27 -19 -21 -37h-72c-5 26 -3 58 10 79c12 21 33 36 56 41c34 8 67 0 99 -16c26 -12 50 -30 75 -28c22 2 26 21 20 38h72zM192 720l334 -507v507h122v-720h-122
l-334 508v-508h-122v720h122z" />
    <glyph glyph-name="O" unicode="O" horiz-adv-x="769" 
d="M385 -15c-213 0 -345 157 -345 375s131 376 345 375c215 -1 340 -151 344 -375c-3 -224 -132 -375 -344 -375zM385 99c145 -2 217 107 217 261c0 157 -73 260 -217 261c-144 2 -220 -108 -218 -261c1 -158 72 -260 218 -261z" />
    <glyph glyph-name="Oacute" unicode="&#xd3;" horiz-adv-x="769" 
d="M277 785l268 96l-31 88l-268 -96zM385 -15c-213 0 -345 157 -345 375s131 376 345 375c215 -1 340 -151 344 -375c-3 -224 -132 -375 -344 -375zM385 99c145 -2 217 107 217 261c0 157 -73 260 -217 261c-144 2 -220 -108 -218 -261c1 -158 72 -260 218 -261z" />
    <glyph glyph-name="Ocircumflex" unicode="&#xd4;" horiz-adv-x="769" 
d="M258 786l127 69l126 -69l44 83l-170 93l-171 -93zM385 -15c-213 0 -345 157 -345 375s131 376 345 375c215 -1 340 -151 344 -375c-3 -224 -132 -375 -344 -375zM385 99c145 -2 217 107 217 261c0 157 -73 260 -217 261c-144 2 -220 -108 -218 -261
c1 -158 72 -260 218 -261z" />
    <glyph glyph-name="Odieresis" unicode="&#xd6;" horiz-adv-x="769" 
d="M226 950h110v-110h-110v110zM433 950h110v-110h-110v110zM385 -15c-213 0 -345 157 -345 375s131 376 345 375c215 -1 340 -151 344 -375c-3 -224 -132 -375 -344 -375zM385 99c145 -2 217 107 217 261c0 157 -73 260 -217 261c-144 2 -220 -108 -218 -261
c1 -158 72 -260 218 -261z" />
    <glyph glyph-name="Ograve" unicode="&#xd2;" horiz-adv-x="769" 
d="M523 785l32 88l-269 96l-30 -88zM385 -15c-213 0 -345 157 -345 375s131 376 345 375c215 -1 340 -151 344 -375c-3 -224 -132 -375 -344 -375zM385 99c145 -2 217 107 217 261c0 157 -73 260 -217 261c-144 2 -220 -108 -218 -261c1 -158 72 -260 218 -261z" />
    <glyph glyph-name="Ohungarumlaut" unicode="&#x150;" horiz-adv-x="769" 
d="M327 791l122 120l-57 58l-122 -119zM490 791l121 120l-57 58l-121 -119zM385 -15c-213 0 -345 157 -345 375s131 376 345 375c215 -1 340 -151 344 -375c-3 -224 -132 -375 -344 -375zM385 99c145 -2 217 107 217 261c0 157 -73 260 -217 261c-144 2 -220 -108 -218 -261
c1 -158 72 -260 218 -261z" />
    <glyph glyph-name="Omacron" unicode="&#x14c;" horiz-adv-x="769" 
d="M251 934h267v-94h-267v94zM385 -15c-213 0 -345 157 -345 375s131 376 345 375c215 -1 340 -151 344 -375c-3 -224 -132 -375 -344 -375zM385 99c145 -2 217 107 217 261c0 157 -73 260 -217 261c-144 2 -220 -108 -218 -261c1 -158 72 -260 218 -261z" />
    <glyph glyph-name="Oslash" unicode="&#xd8;" horiz-adv-x="769" 
d="M750 639l-70 -70c31 -58 48 -129 49 -209c-3 -224 -132 -375 -344 -375c-87 0 -161 26 -217 72l-58 -57l-80 80l64 64c-35 60 -54 134 -54 216c0 218 131 376 345 375c92 0 167 -28 223 -77l62 62zM167 360c0 -46 7 -88 19 -124l338 338c-35 30 -81 47 -139 47
c-144 2 -220 -108 -218 -261zM602 360c0 43 -5 81 -16 115l-335 -334c34 -27 79 -42 134 -42c145 -2 217 107 217 261z" />
    <glyph glyph-name="Otilde" unicode="&#xd5;" horiz-adv-x="769" 
d="M551 961c5 -26 3 -59 -10 -79c-12 -21 -33 -37 -56 -42c-34 -8 -67 1 -99 16c-26 13 -50 30 -74 28c-23 -2 -27 -19 -21 -37h-72c-6 26 -3 58 9 79c13 21 34 36 57 41c33 8 67 0 98 -16c27 -12 51 -30 75 -28c23 2 27 21 21 38h72zM385 -15c-213 0 -345 157 -345 375
s131 376 345 375c215 -1 340 -151 344 -375c-3 -224 -132 -375 -344 -375zM385 99c145 -2 217 107 217 261c0 157 -73 260 -217 261c-144 2 -220 -108 -218 -261c1 -158 72 -260 218 -261z" />
    <glyph glyph-name="OE" unicode="&#x152;" horiz-adv-x="1149" 
d="M1099 607h-344v-178h284v-112h-284v-204h344v-113h-465v87c-59 -65 -144 -102 -249 -102c-213 0 -345 157 -345 375s131 376 345 375c106 0 190 -37 249 -102v87h465v-113zM385 99c145 -2 217 107 217 261c0 157 -73 260 -217 261c-144 2 -220 -108 -218 -261
c1 -158 72 -260 218 -261z" />
    <glyph glyph-name="P" unicode="P" horiz-adv-x="639" 
d="M425 716c125 -19 184 -111 184 -230s-60 -211 -184 -231c-19 -3 -44 -4 -57 -4h-178v-251h-120v720h298c14 0 38 -1 57 -4zM408 369c60 15 79 71 79 117s-19 101 -79 116c-14 4 -32 5 -45 5h-173v-243h173c13 0 31 1 45 5z" />
    <glyph glyph-name="Thorn" unicode="&#xde;" horiz-adv-x="630" 
d="M600 360c1 -51 -18 -102 -49 -142c-42 -55 -112 -91 -188 -91h-171v-127h-122v720h122v-126h171c26 0 51 -4 74 -11c44 -14 84 -42 112 -79c32 -40 50 -93 51 -144zM453 286c16 21 26 47 25 74c-1 30 -11 59 -31 80c-21 23 -54 41 -84 41h-171v-242h171c30 0 67 18 90 47
z" />
    <glyph glyph-name="Q" unicode="Q" horiz-adv-x="769" 
d="M729 360c-1 -99 -27 -183 -73 -247l52 -52l-74 -76l-55 55c-53 -36 -118 -55 -194 -55c-213 0 -345 157 -345 375s131 376 345 375c215 -1 340 -151 344 -375zM385 99c43 -1 79 8 109 25l-66 66l76 75l64 -64c23 43 34 98 34 159c0 157 -73 260 -217 261
c-144 2 -220 -108 -218 -261c1 -158 72 -260 218 -261z" />
    <glyph glyph-name="R" unicode="R" horiz-adv-x="640" 
d="M484 0l-122 251h-172v-251h-120v720h298c14 0 38 -1 57 -4c125 -19 184 -111 184 -230c0 -97 -40 -176 -122 -213l133 -273h-136zM190 607v-243h173c13 0 31 1 45 5c60 15 79 71 79 117s-19 101 -79 116c-14 4 -32 5 -45 5h-173z" />
    <glyph glyph-name="Racute" unicode="&#x154;" horiz-adv-x="640" 
d="M473 881l-267 -96l-31 88l268 96zM484 0l-122 251h-172v-251h-120v720h298c14 0 38 -1 57 -4c125 -19 184 -111 184 -230c0 -97 -40 -176 -122 -213l133 -273h-136zM190 607v-243h173c13 0 31 1 45 5c60 15 79 71 79 117s-19 101 -79 116c-14 4 -32 5 -45 5h-173z" />
    <glyph glyph-name="Rcaron" unicode="&#x158;" horiz-adv-x="640" 
d="M477 880l-170 -94l-171 94l44 82l127 -69l127 69zM484 0l-122 251h-172v-251h-120v720h298c14 0 38 -1 57 -4c125 -19 184 -111 184 -230c0 -97 -40 -176 -122 -213l133 -273h-136zM190 607v-243h173c13 0 31 1 45 5c60 15 79 71 79 117s-19 101 -79 116
c-14 4 -32 5 -45 5h-173z" />
    <glyph glyph-name="uni0156" unicode="&#x156;" horiz-adv-x="640" 
d="M487 273l133 -273h-136l-122 251h-172v-251h-120v720h298c14 0 38 -1 57 -4c125 -19 184 -111 184 -230c0 -97 -40 -176 -122 -213zM190 607v-243h173c13 0 31 1 45 5c60 15 79 71 79 117s-19 101 -79 116c-14 4 -32 5 -45 5h-173zM270 -182v117h117v-117
c0 -63 -50 -105 -117 -105v53c15 0 65 6 64 52h-64z" />
    <glyph glyph-name="S" unicode="S" horiz-adv-x="641" 
d="M605 523l-129 -22c-8 40 -33 73 -65 94c-25 15 -57 26 -92 26c-35 1 -66 -7 -90 -21c-24 -15 -44 -39 -44 -69c0 -15 4 -33 17 -46c16 -17 47 -30 87 -42l126 -34c62 -18 120 -42 148 -72c38 -40 48 -80 48 -140c0 -57 -30 -108 -75 -146c-57 -49 -128 -66 -208 -66
c-93 0 -174 27 -236 95c-37 42 -55 89 -62 133l125 19c6 -23 20 -56 44 -80c33 -33 81 -54 133 -54c41 0 87 10 115 32c25 19 38 44 38 70c0 21 -8 42 -24 56c-18 17 -42 25 -73 34l-134 39c-60 17 -109 31 -145 66c-38 36 -51 81 -51 132c0 67 34 124 84 159
c50 36 115 49 179 49c49 -1 105 -10 152 -36c59 -33 112 -87 132 -176z" />
    <glyph glyph-name="Sacute" unicode="&#x15a;" horiz-adv-x="641" 
d="M200 785l268 96l-31 88l-268 -96zM605 523l-129 -22c-8 40 -33 73 -65 94c-25 15 -57 26 -92 26c-35 1 -66 -7 -90 -21c-24 -15 -44 -39 -44 -69c0 -15 4 -33 17 -46c16 -17 47 -30 87 -42l126 -34c62 -18 120 -42 148 -72c38 -40 48 -80 48 -140
c0 -57 -30 -108 -75 -146c-57 -49 -128 -66 -208 -66c-93 0 -174 27 -236 95c-37 42 -55 89 -62 133l125 19c6 -23 20 -56 44 -80c33 -33 81 -54 133 -54c41 0 87 10 115 32c25 19 38 44 38 70c0 21 -8 42 -24 56c-18 17 -42 25 -73 34l-134 39c-60 17 -109 31 -145 66
c-38 36 -51 81 -51 132c0 67 34 124 84 159c50 36 115 49 179 49c49 -1 105 -10 152 -36c59 -33 112 -87 132 -176z" />
    <glyph glyph-name="Scaron" unicode="&#x160;" horiz-adv-x="641" 
d="M193 962l-44 -82l171 -94l170 94l-44 82l-126 -69zM605 523l-129 -22c-8 40 -33 73 -65 94c-25 15 -57 26 -92 26c-35 1 -66 -7 -90 -21c-24 -15 -44 -39 -44 -69c0 -15 4 -33 17 -46c16 -17 47 -30 87 -42l126 -34c62 -18 120 -42 148 -72c38 -40 48 -80 48 -140
c0 -57 -30 -108 -75 -146c-57 -49 -128 -66 -208 -66c-93 0 -174 27 -236 95c-37 42 -55 89 -62 133l125 19c6 -23 20 -56 44 -80c33 -33 81 -54 133 -54c41 0 87 10 115 32c25 19 38 44 38 70c0 21 -8 42 -24 56c-18 17 -42 25 -73 34l-134 39c-60 17 -109 31 -145 66
c-38 36 -51 81 -51 132c0 67 34 124 84 159c50 36 115 49 179 49c49 -1 105 -10 152 -36c59 -33 112 -87 132 -176z" />
    <glyph glyph-name="Scedilla" unicode="&#x15e;" horiz-adv-x="641" 
d="M563 337c38 -40 48 -80 48 -140c0 -57 -30 -108 -75 -146c-51 -44 -114 -62 -185 -65l-9 -28c18 -9 36 -23 48 -43c19 -33 17 -80 -5 -110c-22 -33 -59 -50 -99 -46c-21 2 -40 9 -57 18l27 71c13 -4 23 -7 31 -7c12 0 22 4 27 12c4 7 6 14 3 23c-5 21 -31 28 -63 37
l26 75c-73 8 -137 36 -188 92c-37 42 -55 89 -62 133l125 19c6 -23 20 -56 44 -80c33 -33 81 -54 133 -54c41 0 87 10 115 32c25 19 38 44 38 70c0 21 -8 42 -24 56c-18 17 -42 25 -73 34l-134 39c-60 17 -109 31 -145 66c-38 36 -51 81 -51 132c0 67 34 124 84 159
c50 36 115 49 179 49c49 -1 105 -10 152 -36c59 -33 112 -87 132 -176l-129 -22c-8 40 -33 73 -65 94c-25 15 -57 26 -92 26c-35 1 -66 -7 -90 -21c-24 -15 -44 -39 -44 -69c0 -15 4 -33 17 -46c16 -17 47 -30 87 -42l126 -34c62 -18 120 -42 148 -72z" />
    <glyph glyph-name="uni0218" unicode="&#x218;" horiz-adv-x="641" 
d="M605 523l-129 -22c-8 40 -33 73 -65 94c-25 15 -57 26 -92 26c-35 1 -66 -7 -90 -21c-24 -15 -44 -39 -44 -69c0 -15 4 -33 17 -46c16 -17 47 -30 87 -42l126 -34c62 -18 120 -42 148 -72c38 -40 48 -80 48 -140c0 -57 -30 -108 -75 -146c-57 -49 -128 -66 -208 -66
c-93 0 -174 27 -236 95c-37 42 -55 89 -62 133l125 19c6 -23 20 -56 44 -80c33 -33 81 -54 133 -54c41 0 87 10 115 32c25 19 38 44 38 70c0 21 -8 42 -24 56c-18 17 -42 25 -73 34l-134 39c-60 17 -109 31 -145 66c-38 36 -51 81 -51 132c0 67 34 124 84 159
c50 36 115 49 179 49c49 -1 105 -10 152 -36c59 -33 112 -87 132 -176zM381 -182c0 -63 -50 -105 -117 -105v53c15 0 65 6 64 52h-64v117h117v-117z" />
    <glyph glyph-name="uni1E9E" unicode="&#x1e9e;" horiz-adv-x="635" 
d="M70 0v469c0 45 3 88 16 125c31 91 104 141 214 141c124 0 207 -76 226 -185l-116 -126c96 -18 165 -85 165 -211c0 -137 -81 -228 -229 -228c-43 0 -69 5 -93 15v118c20 -7 45 -15 77 -15c74 0 122 40 122 114c0 65 -57 118 -144 100l-37 94l129 142
c-12 43 -47 69 -100 69c-37 0 -72 -19 -91 -56c-15 -27 -17 -58 -17 -98v-468h-122z" />
    <glyph glyph-name="T" unicode="T" horiz-adv-x="607" 
d="M597 720v-113h-233v-607h-121v607h-233v113h587z" />
    <glyph glyph-name="Tbar" unicode="&#x166;" horiz-adv-x="607" 
d="M597 607h-233v-187h174v-120h-174v-300h-121v300h-175v120h175v187h-233v113h587v-113z" />
    <glyph glyph-name="Tcaron" unicode="&#x164;" horiz-adv-x="607" 
d="M474 880l-171 -94l-170 94l44 82l126 -69l127 69zM597 720v-113h-233v-607h-121v607h-233v113h587z" />
    <glyph glyph-name="uni0162" unicode="&#x162;" horiz-adv-x="607" 
d="M364 0h-23l-15 -42c19 -9 37 -23 48 -43c20 -33 17 -80 -5 -110c-22 -33 -59 -50 -99 -46c-21 2 -40 9 -57 18l27 71c13 -4 23 -7 32 -7c11 0 21 4 26 12c5 7 7 14 4 23c-6 21 -32 28 -64 37l30 87h-25v607h-233v113h587v-113h-233v-607z" />
    <glyph glyph-name="uni021A" unicode="&#x21a;" horiz-adv-x="607" 
d="M597 720v-113h-233v-607h-121v607h-233v113h587zM245 -182v117h117v-117c0 -63 -50 -105 -117 -105v53c15 0 65 6 64 52h-64z" />
    <glyph glyph-name="U" unicode="U" horiz-adv-x="720" 
d="M650 720v-453c0 -24 -3 -49 -8 -73c-31 -133 -141 -209 -281 -209c-143 0 -255 75 -283 208c-6 24 -8 54 -8 74v452l122 1v-442c0 -21 1 -40 6 -61c19 -70 86 -119 163 -119c79 0 145 56 162 126c4 17 5 34 5 54v442h122z" />
    <glyph glyph-name="Uacute" unicode="&#xda;" horiz-adv-x="720" 
d="M258 785l267 96l-30 88l-269 -96zM650 720v-453c0 -24 -3 -49 -8 -73c-31 -133 -141 -209 -281 -209c-143 0 -255 75 -283 208c-6 24 -8 54 -8 74v452l122 1v-442c0 -21 1 -40 6 -61c19 -70 86 -119 163 -119c79 0 145 56 162 126c4 17 5 34 5 54v442h122z" />
    <glyph glyph-name="Ucircumflex" unicode="&#xdb;" horiz-adv-x="720" 
d="M233 786l127 69l127 -69l44 83l-171 93l-170 -93zM650 720v-453c0 -24 -3 -49 -8 -73c-31 -133 -141 -209 -281 -209c-143 0 -255 75 -283 208c-6 24 -8 54 -8 74v452l122 1v-442c0 -21 1 -40 6 -61c19 -70 86 -119 163 -119c79 0 145 56 162 126c4 17 5 34 5 54v442h122
z" />
    <glyph glyph-name="Udieresis" unicode="&#xdc;" horiz-adv-x="720" 
d="M202 950h110v-110h-110v110zM408 950h110v-110h-110v110zM650 720v-453c0 -24 -3 -49 -8 -73c-31 -133 -141 -209 -281 -209c-143 0 -255 75 -283 208c-6 24 -8 54 -8 74v452l122 1v-442c0 -21 1 -40 6 -61c19 -70 86 -119 163 -119c79 0 145 56 162 126c4 17 5 34 5 54
v442h122z" />
    <glyph glyph-name="Ugrave" unicode="&#xd9;" horiz-adv-x="720" 
d="M502 785l31 88l-268 96l-30 -88zM650 720v-453c0 -24 -3 -49 -8 -73c-31 -133 -141 -209 -281 -209c-143 0 -255 75 -283 208c-6 24 -8 54 -8 74v452l122 1v-442c0 -21 1 -40 6 -61c19 -70 86 -119 163 -119c79 0 145 56 162 126c4 17 5 34 5 54v442h122z" />
    <glyph glyph-name="Uhungarumlaut" unicode="&#x170;" horiz-adv-x="720" 
d="M281 791l121 120l-57 58l-121 -119zM443 791l122 120l-57 58l-122 -119zM650 720v-453c0 -24 -3 -49 -8 -73c-31 -133 -141 -209 -281 -209c-143 0 -255 75 -283 208c-6 24 -8 54 -8 74v452l122 1v-442c0 -21 1 -40 6 -61c19 -70 86 -119 163 -119c79 0 145 56 162 126
c4 17 5 34 5 54v442h122z" />
    <glyph glyph-name="Umacron" unicode="&#x16a;" horiz-adv-x="720" 
d="M227 934h266v-94h-266v94zM650 720v-453c0 -24 -3 -49 -8 -73c-31 -133 -141 -209 -281 -209c-143 0 -255 75 -283 208c-6 24 -8 54 -8 74v452l122 1v-442c0 -21 1 -40 6 -61c19 -70 86 -119 163 -119c79 0 145 56 162 126c4 17 5 34 5 54v442h122z" />
    <glyph glyph-name="Uogonek" unicode="&#x172;" horiz-adv-x="720" 
d="M528 720h122v-453c0 -24 -3 -49 -8 -73c-17 -72 -57 -128 -113 -164c-40 -35 -67 -59 -80 -76c-14 -20 -28 -39 -36 -58c-3 -7 -7 -26 3 -36c13 -17 42 -7 59 7l44 -56c-10 -17 -26 -32 -48 -41c-44 -22 -99 -7 -129 32c-27 30 -33 81 -16 126c9 20 21 39 35 57
c-143 0 -255 75 -283 208c-6 24 -8 54 -8 74v452l122 1v-442c0 -21 1 -40 6 -61c19 -70 86 -119 163 -119c79 0 145 56 162 126c4 17 5 34 5 54v442z" />
    <glyph glyph-name="Uring" unicode="&#x16e;" horiz-adv-x="720" 
d="M360 997c80 0 146 -66 146 -146s-66 -146 -146 -146s-146 66 -146 146s66 146 146 146zM360 911c-33 0 -60 -27 -60 -60s27 -60 60 -60s60 27 60 60s-27 60 -60 60zM650 720v-453c0 -24 -3 -49 -8 -73c-31 -133 -141 -209 -281 -209c-143 0 -255 75 -283 208
c-6 24 -8 54 -8 74v452l122 1v-442c0 -21 1 -40 6 -61c19 -70 86 -119 163 -119c79 0 145 56 162 126c4 17 5 34 5 54v442h122z" />
    <glyph glyph-name="V" unicode="V" horiz-adv-x="641" 
d="M232 0l-227 720h124l190 -603l193 603h124l-227 -720h-177z" />
    <glyph glyph-name="W" unicode="W" horiz-adv-x="976" 
d="M838 720h126l-210 -720h-119l-148 512l-146 -512h-119l-210 720h126l143 -520l143 519l126 1l144 -520z" />
    <glyph glyph-name="Wacute" unicode="&#x1e82;" horiz-adv-x="976" 
d="M351 785l267 96l-30 88l-269 -96zM838 720h126l-210 -720h-119l-148 512l-146 -512h-119l-210 720h126l143 -520l143 519l126 1l144 -520z" />
    <glyph glyph-name="Wcircumflex" unicode="&#x174;" horiz-adv-x="976" 
d="M362 786l126 69l127 -69l44 83l-171 93l-170 -93zM838 720h126l-210 -720h-119l-148 512l-146 -512h-119l-210 720h126l143 -520l143 519l126 1l144 -520z" />
    <glyph glyph-name="Wdieresis" unicode="&#x1e84;" horiz-adv-x="976" 
d="M330 950h110v-110h-110v110zM537 950h110v-110h-110v110zM838 720h126l-210 -720h-119l-148 512l-146 -512h-119l-210 720h126l143 -520l143 519l126 1l144 -520z" />
    <glyph glyph-name="Wgrave" unicode="&#x1e80;" horiz-adv-x="976" 
d="M621 785l31 88l-268 96l-31 -88zM838 720h126l-210 -720h-119l-148 512l-146 -512h-119l-210 720h126l143 -520l143 519l126 1l144 -520z" />
    <glyph glyph-name="X" unicode="X" horiz-adv-x="656" 
d="M403 364l243 -364h-148l-169 262l-171 -262h-148l244 364l-237 356h147l165 -253l162 253h149z" />
    <glyph glyph-name="Y" unicode="Y" horiz-adv-x="612" 
d="M471 720h141l-245 -425v-295h-122v295l-245 425h141l165 -287z" />
    <glyph glyph-name="Yacute" unicode="&#xdd;" horiz-adv-x="612" 
d="M198 785l268 96l-31 88l-268 -96zM471 720h141l-245 -425v-295h-122v295l-245 425h141l165 -287z" />
    <glyph glyph-name="Ycircumflex" unicode="&#x176;" horiz-adv-x="612" 
d="M179 786l127 69l127 -69l43 83l-170 93l-171 -93zM471 720h141l-245 -425v-295h-122v295l-245 425h141l165 -287z" />
    <glyph glyph-name="Ydieresis" unicode="&#x178;" horiz-adv-x="612" 
d="M148 950h110v-110h-110v110zM354 950h110v-110h-110v110zM471 720h141l-245 -425v-295h-122v295l-245 425h141l165 -287z" />
    <glyph glyph-name="Ygrave" unicode="&#x1ef2;" horiz-adv-x="612" 
d="M443 785l31 88l-268 96l-31 -88zM471 720h141l-245 -425v-295h-122v295l-245 425h141l165 -287z" />
    <glyph glyph-name="Z" unicode="Z" horiz-adv-x="664" 
d="M261 114h344v-114h-555v17l355 590h-330v113h539v-17z" />
    <glyph glyph-name="Zacute" unicode="&#x179;" horiz-adv-x="664" 
d="M232 785l267 96l-30 88l-269 -96zM261 114h344v-114h-555v17l355 590h-330v113h539v-17z" />
    <glyph glyph-name="Zcaron" unicode="&#x17d;" horiz-adv-x="664" 
d="M213 962l-43 -82l170 -94l171 94l-44 82l-127 -69zM261 114h344v-114h-555v17l355 590h-330v113h539v-17z" />
    <glyph glyph-name="Zdotaccent" unicode="&#x17b;" horiz-adv-x="664" 
d="M287 950h123v-123h-123v123zM261 114h344v-114h-555v17l355 590h-330v113h539v-17z" />
    <glyph glyph-name="a" unicode="a" horiz-adv-x="576" 
d="M516 0h-105v71c-47 -58 -100 -86 -193 -86c-108 0 -178 67 -178 168c0 77 41 124 104 149c71 28 162 38 253 51c-6 65 -52 92 -109 92c-54 0 -100 -23 -120 -75l-109 34c34 84 114 151 233 151c111 0 185 -47 213 -135c8 -28 11 -60 11 -95v-325zM378 152
c17 31 19 75 19 102c-76 -11 -116 -17 -164 -30c-44 -13 -75 -34 -75 -74c0 -37 30 -70 87 -70s108 30 133 72z" />
    <glyph glyph-name="aacute" unicode="&#xe1;" horiz-adv-x="576" 
d="M188 605l267 96l-30 88l-268 -96zM516 0h-105v71c-47 -58 -100 -86 -193 -86c-108 0 -178 67 -178 168c0 77 41 124 104 149c71 28 162 38 253 51c-6 65 -52 92 -109 92c-54 0 -100 -23 -120 -75l-109 34c34 84 114 151 233 151c111 0 185 -47 213 -135
c8 -28 11 -60 11 -95v-325zM378 152c17 31 19 75 19 102c-76 -11 -116 -17 -164 -30c-44 -13 -75 -34 -75 -74c0 -37 30 -70 87 -70s108 30 133 72z" />
    <glyph glyph-name="abreve" unicode="&#x103;" horiz-adv-x="576" 
d="M351 752h94c0 -84 -68 -152 -152 -152c-83 0 -151 68 -151 152h94c0 -32 26 -58 57 -58c32 0 58 26 58 58zM516 0h-105v71c-47 -58 -100 -86 -193 -86c-108 0 -178 67 -178 168c0 77 41 124 104 149c71 28 162 38 253 51c-6 65 -52 92 -109 92c-54 0 -100 -23 -120 -75
l-109 34c34 84 114 151 233 151c111 0 185 -47 213 -135c8 -28 11 -60 11 -95v-325zM378 152c17 31 19 75 19 102c-76 -11 -116 -17 -164 -30c-44 -13 -75 -34 -75 -74c0 -37 30 -70 87 -70s108 30 133 72z" />
    <glyph glyph-name="acircumflex" unicode="&#xe2;" horiz-adv-x="576" 
d="M171 606l127 69l127 -69l44 83l-171 93l-170 -93zM516 0h-105v71c-47 -58 -100 -86 -193 -86c-108 0 -178 67 -178 168c0 77 41 124 104 149c71 28 162 38 253 51c-6 65 -52 92 -109 92c-54 0 -100 -23 -120 -75l-109 34c34 84 114 151 233 151c111 0 185 -47 213 -135
c8 -28 11 -60 11 -95v-325zM378 152c17 31 19 75 19 102c-76 -11 -116 -17 -164 -30c-44 -13 -75 -34 -75 -74c0 -37 30 -70 87 -70s108 30 133 72z" />
    <glyph glyph-name="adieresis" unicode="&#xe4;" horiz-adv-x="576" 
d="M139 733h110v-110h-110v110zM346 733h110v-110h-110v110zM516 0h-105v71c-47 -58 -100 -86 -193 -86c-108 0 -178 67 -178 168c0 77 41 124 104 149c71 28 162 38 253 51c-6 65 -52 92 -109 92c-54 0 -100 -23 -120 -75l-109 34c34 84 114 151 233 151
c111 0 185 -47 213 -135c8 -28 11 -60 11 -95v-325zM378 152c17 31 19 75 19 102c-76 -11 -116 -17 -164 -30c-44 -13 -75 -34 -75 -74c0 -37 30 -70 87 -70s108 30 133 72z" />
    <glyph glyph-name="agrave" unicode="&#xe0;" horiz-adv-x="576" 
d="M449 605l31 88l-268 96l-30 -88zM516 0h-105v71c-47 -58 -100 -86 -193 -86c-108 0 -178 67 -178 168c0 77 41 124 104 149c71 28 162 38 253 51c-6 65 -52 92 -109 92c-54 0 -100 -23 -120 -75l-109 34c34 84 114 151 233 151c111 0 185 -47 213 -135
c8 -28 11 -60 11 -95v-325zM378 152c17 31 19 75 19 102c-76 -11 -116 -17 -164 -30c-44 -13 -75 -34 -75 -74c0 -37 30 -70 87 -70s108 30 133 72z" />
    <glyph glyph-name="amacron" unicode="&#x101;" horiz-adv-x="576" 
d="M175 754h267v-94h-267v94zM516 0h-105v71c-47 -58 -100 -86 -193 -86c-108 0 -178 67 -178 168c0 77 41 124 104 149c71 28 162 38 253 51c-6 65 -52 92 -109 92c-54 0 -100 -23 -120 -75l-109 34c34 84 114 151 233 151c111 0 185 -47 213 -135c8 -28 11 -60 11 -95
v-325zM378 152c17 31 19 75 19 102c-76 -11 -116 -17 -164 -30c-44 -13 -75 -34 -75 -74c0 -37 30 -70 87 -70s108 30 133 72z" />
    <glyph glyph-name="aogonek" unicode="&#x105;" horiz-adv-x="576" 
d="M498 -133l44 -56c-11 -17 -27 -32 -48 -41c-44 -22 -99 -7 -129 32c-28 30 -33 81 -16 126c13 32 35 60 62 84v59c-47 -58 -100 -86 -193 -86c-108 0 -178 67 -178 168c0 77 41 124 104 149c71 28 162 38 253 51c-6 65 -52 92 -109 92c-54 0 -100 -23 -120 -75l-109 34
c34 84 114 151 233 151c111 0 185 -47 213 -135c8 -28 11 -60 11 -95v-308l11 -17c-19 -14 -39 -30 -53 -48c-16 -17 -30 -37 -38 -56c-3 -7 -8 -26 3 -36c13 -17 42 -7 59 7zM378 152c17 31 19 75 19 102c-76 -11 -116 -17 -164 -30c-44 -13 -75 -34 -75 -74
c0 -37 30 -70 87 -70s108 30 133 72z" />
    <glyph glyph-name="aring" unicode="&#xe5;" horiz-adv-x="576" 
d="M505 420c8 -28 11 -60 11 -95v-325h-105v71c-47 -58 -100 -86 -193 -86c-108 0 -178 67 -178 168c0 77 41 124 104 149c71 28 162 38 253 51c-6 65 -52 92 -109 92c-54 0 -100 -23 -120 -75l-109 34c21 52 60 98 115 125c-18 24 -29 54 -29 86c0 80 66 146 146 146
s146 -66 146 -146c0 -31 -10 -60 -27 -84c46 -22 79 -59 95 -111zM291 675c-33 0 -60 -27 -60 -60s27 -60 60 -60s60 27 60 60s-27 60 -60 60zM378 152c17 31 19 75 19 102c-76 -11 -116 -17 -164 -30c-44 -13 -75 -34 -75 -74c0 -37 30 -70 87 -70s108 30 133 72z" />
    <glyph glyph-name="atilde" unicode="&#xe3;" horiz-adv-x="576" 
d="M465 756c5 -26 3 -59 -9 -79c-13 -21 -34 -37 -57 -42c-33 -8 -67 1 -98 16c-27 13 -51 30 -75 28c-23 -2 -27 -19 -21 -37h-72c-5 26 -3 58 9 79c13 21 34 36 57 41c33 8 67 0 98 -16c27 -12 51 -30 76 -28c22 2 26 21 20 38h72zM516 0h-105v71
c-47 -58 -100 -86 -193 -86c-108 0 -178 67 -178 168c0 77 41 124 104 149c71 28 162 38 253 51c-6 65 -52 92 -109 92c-54 0 -100 -23 -120 -75l-109 34c34 84 114 151 233 151c111 0 185 -47 213 -135c8 -28 11 -60 11 -95v-325zM378 152c17 31 19 75 19 102
c-76 -11 -116 -17 -164 -30c-44 -13 -75 -34 -75 -74c0 -37 30 -70 87 -70s108 30 133 72z" />
    <glyph glyph-name="ae" unicode="&#xe6;" horiz-adv-x="938" 
d="M528 236c9 -85 53 -138 131 -138c54 0 97 26 120 77l112 -36c-38 -97 -129 -154 -226 -154c-96 0 -171 43 -216 113c-1 -2 -3 -5 -5 -7c-27 -39 -59 -66 -97 -83c-57 -25 -138 -27 -185 -11c-37 12 -71 33 -91 63c-32 46 -41 105 -18 159c19 43 56 75 90 88
c51 21 91 26 172 26h92c0 40 -16 70 -44 88c-25 15 -57 21 -89 21c-31 0 -59 -7 -80 -26c-12 -7 -20 -18 -27 -28l-110 52c4 6 8 13 13 18c45 66 122 96 207 96c43 0 92 -5 145 -33c20 -12 39 -27 54 -44c44 50 107 78 183 78c166 0 250 -132 238 -319h-369zM659 450
c-77 0 -115 -48 -128 -119h250c-9 76 -42 119 -122 119zM377 159c18 22 23 45 29 69h-67c-37 0 -71 1 -98 -1c-30 -3 -60 -17 -73 -36c-10 -16 -13 -44 3 -65c15 -19 40 -29 57 -30c22 -3 59 3 86 15c25 10 48 27 63 48z" />
    <glyph glyph-name="b" unicode="b" horiz-adv-x="617" 
d="M326 555c153 0 251 -121 251 -285c0 -162 -97 -285 -247 -285c-63 0 -114 20 -153 54v-39h-107v720h121v-207c36 27 81 42 135 42zM312 93c94 0 137 78 137 177c0 98 -44 177 -141 177c-92 0 -131 -72 -131 -177s38 -177 135 -177z" />
    <glyph glyph-name="c" unicode="c" horiz-adv-x="576" 
d="M545 383l-120 -33c-18 58 -65 92 -120 92c-95 0 -137 -73 -137 -172c0 -103 46 -172 137 -172c64 0 98 30 117 85l123 -27c-33 -110 -120 -171 -240 -171c-167 0 -264 122 -265 285c1 166 102 285 266 285c123 0 213 -66 239 -172z" />
    <glyph glyph-name="cacute" unicode="&#x107;" horiz-adv-x="576" 
d="M184 605l267 96l-30 88l-269 -96zM545 383l-120 -33c-18 58 -65 92 -120 92c-95 0 -137 -73 -137 -172c0 -103 46 -172 137 -172c64 0 98 30 117 85l123 -27c-33 -110 -120 -171 -240 -171c-167 0 -264 122 -265 285c1 166 102 285 266 285c123 0 213 -66 239 -172z" />
    <glyph glyph-name="ccaron" unicode="&#x10d;" horiz-adv-x="576" 
d="M178 782l-44 -82l171 -94l170 94l-44 82l-126 -69zM545 383l-120 -33c-18 58 -65 92 -120 92c-95 0 -137 -73 -137 -172c0 -103 46 -172 137 -172c64 0 98 30 117 85l123 -27c-33 -110 -120 -171 -240 -171c-167 0 -264 122 -265 285c1 166 102 285 266 285
c123 0 213 -66 239 -172z" />
    <glyph glyph-name="ccedilla" unicode="&#xe7;" horiz-adv-x="576" 
d="M305 98c64 0 98 30 117 85l123 -27c-29 -95 -98 -154 -194 -168l-10 -30c18 -9 36 -23 48 -43c19 -33 16 -80 -5 -110c-23 -33 -59 -50 -99 -46c-22 2 -40 9 -57 18l26 71c14 -4 23 -7 32 -7c12 0 22 4 26 12c5 7 7 14 4 23c-6 21 -32 28 -64 37l26 73
c-150 13 -237 130 -238 284c1 166 102 285 266 285c123 0 213 -66 239 -172l-120 -33c-18 58 -65 92 -120 92c-95 0 -137 -73 -137 -172c0 -103 46 -172 137 -172z" />
    <glyph glyph-name="cdotaccent" unicode="&#x10b;" horiz-adv-x="576" 
d="M259 770h123v-123h-123v123zM545 383l-120 -33c-18 58 -65 92 -120 92c-95 0 -137 -73 -137 -172c0 -103 46 -172 137 -172c64 0 98 30 117 85l123 -27c-33 -110 -120 -171 -240 -171c-167 0 -264 122 -265 285c1 166 102 285 266 285c123 0 213 -66 239 -172z" />
    <glyph glyph-name="d" unicode="d" horiz-adv-x="617" 
d="M426 720h121v-720h-106v40c-39 -35 -90 -55 -154 -55c-150 0 -247 123 -247 285c0 164 98 285 251 285c54 0 99 -15 135 -42v207zM305 93c97 0 135 72 135 177s-39 177 -131 177c-97 0 -141 -79 -141 -177c0 -99 43 -177 137 -177z" />
    <glyph glyph-name="eth" unicode="&#xf0;" horiz-adv-x="596" 
d="M465 639c79 -102 91 -229 91 -384c0 -73 -20 -141 -66 -190c-41 -62 -116 -80 -191 -80c-76 0 -147 28 -193 80c-45 49 -66 117 -66 186c0 70 20 137 66 187c47 54 119 80 193 80c36 0 77 -3 113 -27c9 -5 26 -15 30 -18c-4 30 -15 62 -47 96c-9 10 -19 20 -30 29
l-46 -59l-75 59l39 49c-24 9 -49 14 -77 16l18 93c44 -2 86 -10 124 -26l58 73l74 -59l-51 -65c13 -12 25 -25 36 -40zM402 137c25 29 34 72 34 115s-9 85 -34 115c-24 29 -63 44 -103 44c-42 0 -81 -15 -105 -44c-25 -30 -33 -72 -33 -115s8 -86 33 -115
c24 -30 63 -45 105 -45c40 0 79 15 103 45z" />
    <glyph glyph-name="dcaron" unicode="&#x10f;" horiz-adv-x="786" 
d="M628 722h124v-134c0 -86 -41 -136 -124 -122l8 52c45 -4 62 30 56 75h-64v129zM426 513v207h121v-720h-106v40c-39 -35 -90 -55 -154 -55c-150 0 -247 123 -247 285c0 164 98 285 251 285c54 0 99 -15 135 -42zM305 93c97 0 135 72 135 177s-39 177 -131 177
c-97 0 -141 -79 -141 -177c0 -99 43 -177 137 -177z" />
    <glyph glyph-name="dcroat" unicode="&#x111;" horiz-adv-x="617" 
d="M611 677v-94h-64v-583h-106v40c-39 -35 -90 -55 -154 -55c-150 0 -247 123 -247 285c0 164 98 285 251 285c54 0 99 -15 135 -42v70h-82v94h82v43h121v-43h64zM305 93c97 0 135 72 135 177s-39 177 -131 177c-97 0 -141 -79 -141 -177c0 -99 43 -177 137 -177z" />
    <glyph glyph-name="e" unicode="e" horiz-adv-x="602" 
d="M170 236c9 -85 56 -138 139 -138c56 0 102 26 126 77l119 -36c-40 -97 -137 -154 -239 -154c-167 0 -275 117 -275 279c0 174 106 291 269 291c175 0 264 -132 251 -319h-390zM309 450c-82 0 -123 -48 -136 -119h265c-10 76 -44 119 -129 119z" />
    <glyph glyph-name="eacute" unicode="&#xe9;" horiz-adv-x="602" 
d="M458 701l-268 -96l-31 88l268 96zM170 236c9 -85 56 -138 139 -138c56 0 102 26 126 77l119 -36c-40 -97 -137 -154 -239 -154c-167 0 -275 117 -275 279c0 174 106 291 269 291c175 0 264 -132 251 -319h-390zM309 450c-82 0 -123 -48 -136 -119h265
c-10 76 -44 119 -129 119z" />
    <glyph glyph-name="ecaron" unicode="&#x11b;" horiz-adv-x="602" 
d="M496 700l-171 -94l-170 94l44 82l126 -69l127 69zM170 236c9 -85 56 -138 139 -138c56 0 102 26 126 77l119 -36c-40 -97 -137 -154 -239 -154c-167 0 -275 117 -275 279c0 174 106 291 269 291c175 0 264 -132 251 -319h-390zM309 450c-82 0 -123 -48 -136 -119h265
c-10 76 -44 119 -129 119z" />
    <glyph glyph-name="ecircumflex" unicode="&#xea;" horiz-adv-x="602" 
d="M310 675l-127 -69l-44 83l171 93l170 -93l-44 -83zM170 236c9 -85 56 -138 139 -138c56 0 102 26 126 77l119 -36c-40 -97 -137 -154 -239 -154c-167 0 -275 117 -275 279c0 174 106 291 269 291c175 0 264 -132 251 -319h-390zM309 450c-82 0 -123 -48 -136 -119h265
c-10 76 -44 119 -129 119z" />
    <glyph glyph-name="edieresis" unicode="&#xeb;" horiz-adv-x="602" 
d="M260 733v-110h-110v110h110zM467 733v-110h-110v110h110zM170 236c9 -85 56 -138 139 -138c56 0 102 26 126 77l119 -36c-40 -97 -137 -154 -239 -154c-167 0 -275 117 -275 279c0 174 106 291 269 291c175 0 264 -132 251 -319h-390zM309 450c-82 0 -123 -48 -136 -119
h265c-10 76 -44 119 -129 119z" />
    <glyph glyph-name="edotaccent" unicode="&#x117;" horiz-adv-x="602" 
d="M371 770v-123h-123v123h123zM170 236c9 -85 56 -138 139 -138c56 0 102 26 126 77l119 -36c-40 -97 -137 -154 -239 -154c-167 0 -275 117 -275 279c0 174 106 291 269 291c175 0 264 -132 251 -319h-390zM309 450c-82 0 -123 -48 -136 -119h265c-10 76 -44 119 -129 119
z" />
    <glyph glyph-name="egrave" unicode="&#xe8;" horiz-adv-x="602" 
d="M490 693l-31 -88l-268 96l31 88zM170 236c9 -85 56 -138 139 -138c56 0 102 26 126 77l119 -36c-40 -97 -137 -154 -239 -154c-167 0 -275 117 -275 279c0 174 106 291 269 291c175 0 264 -132 251 -319h-390zM309 450c-82 0 -123 -48 -136 -119h265
c-10 76 -44 119 -129 119z" />
    <glyph glyph-name="emacron" unicode="&#x113;" horiz-adv-x="602" 
d="M452 754v-94h-267v94h267zM170 236c9 -85 56 -138 139 -138c56 0 102 26 126 77l119 -36c-40 -97 -137 -154 -239 -154c-167 0 -275 117 -275 279c0 174 106 291 269 291c175 0 264 -132 251 -319h-390zM309 450c-82 0 -123 -48 -136 -119h265c-10 76 -44 119 -129 119z
" />
    <glyph glyph-name="eogonek" unicode="&#x119;" horiz-adv-x="602" 
d="M170 236c9 -85 56 -138 139 -138c56 0 102 26 126 77l119 -36c-5 -12 -11 -23 -17 -33l4 -1c-30 -51 -63 -99 -81 -129c-17 -31 -30 -59 -36 -79c-3 -8 -6 -26 4 -37c15 -16 42 -7 60 7l43 -56c-10 -17 -26 -32 -47 -41c-46 -20 -100 -6 -130 32c-25 31 -34 81 -15 126
c9 21 22 44 35 63c-20 -4 -39 -6 -59 -6c-167 0 -275 117 -275 279c0 174 106 291 269 291c175 0 264 -132 251 -319h-390zM309 450c-82 0 -123 -48 -136 -119h265c-10 76 -44 119 -129 119z" />
    <glyph glyph-name="f" unicode="f" horiz-adv-x="378" 
d="M306 637c-47 0 -68 -25 -68 -62v-35h130v-94h-130v-446h-121v446h-87v94h87v9c0 41 -1 98 36 139c45 51 108 47 148 47h67v-98h-62z" />
    <glyph glyph-name="g" unicode="g" horiz-adv-x="616" 
d="M440 540h106v-566c0 -28 -2 -52 -7 -76c-25 -105 -120 -152 -242 -152c-90 0 -172 43 -215 116l112 55c20 -39 61 -57 104 -57c75 0 129 39 128 116v52c-37 -28 -83 -43 -139 -43c-150 0 -247 123 -247 285c0 164 98 285 251 285c61 0 111 -19 149 -53v38zM305 93
c97 0 135 72 135 177s-39 177 -131 177c-97 0 -141 -79 -141 -177c0 -99 43 -177 137 -177z" />
    <glyph glyph-name="gbreve" unicode="&#x11f;" horiz-adv-x="616" 
d="M338 600c-84 0 -152 68 -152 152h94c0 -32 26 -58 58 -58s57 26 57 58h94c0 -84 -67 -152 -151 -152zM440 540h106v-566c0 -28 -2 -52 -7 -76c-25 -105 -120 -152 -242 -152c-90 0 -172 43 -215 116l112 55c20 -39 61 -57 104 -57c75 0 129 39 128 116v52
c-37 -28 -83 -43 -139 -43c-150 0 -247 123 -247 285c0 164 98 285 251 285c61 0 111 -19 149 -53v38zM305 93c97 0 135 72 135 177s-39 177 -131 177c-97 0 -141 -79 -141 -177c0 -99 43 -177 137 -177z" />
    <glyph glyph-name="uni0123" unicode="&#x123;" horiz-adv-x="616" 
d="M376 717v-117h-116v117c0 63 49 105 116 105v-53c-15 0 -64 -6 -64 -52h64zM440 540h106v-566c0 -28 -2 -52 -7 -76c-25 -105 -120 -152 -242 -152c-90 0 -172 43 -215 116l112 55c20 -39 61 -57 104 -57c75 0 129 39 128 116v52c-37 -28 -83 -43 -139 -43
c-150 0 -247 123 -247 285c0 164 98 285 251 285c61 0 111 -19 149 -53v38zM305 93c97 0 135 72 135 177s-39 177 -131 177c-97 0 -141 -79 -141 -177c0 -99 43 -177 137 -177z" />
    <glyph glyph-name="gdotaccent" unicode="&#x121;" horiz-adv-x="616" 
d="M392 770v-123h-123v123h123zM440 540h106v-566c0 -28 -2 -52 -7 -76c-25 -105 -120 -152 -242 -152c-90 0 -172 43 -215 116l112 55c20 -39 61 -57 104 -57c75 0 129 39 128 116v52c-37 -28 -83 -43 -139 -43c-150 0 -247 123 -247 285c0 164 98 285 251 285
c61 0 111 -19 149 -53v38zM305 93c97 0 135 72 135 177s-39 177 -131 177c-97 0 -141 -79 -141 -177c0 -99 43 -177 137 -177z" />
    <glyph glyph-name="h" unicode="h" horiz-adv-x="626" 
d="M500 500c63 -57 66 -152 66 -239v-261h-122v256c0 63 -9 123 -43 155c-22 21 -52 32 -90 31c-28 -1 -52 -9 -71 -25c-22 -17 -36 -43 -43 -75c-5 -26 -6 -68 -6 -107v-235h-121v720h107v-240c3 4 7 9 11 13c36 41 90 59 138 61c62 4 124 -6 174 -54z" />
    <glyph glyph-name="hbar" unicode="&#x127;" horiz-adv-x="626" 
d="M500 500c63 -57 66 -152 66 -239v-261h-122v256c0 63 -9 123 -43 155c-22 21 -52 32 -90 31c-28 -1 -52 -9 -71 -25c-22 -17 -36 -43 -43 -75c-5 -26 -6 -68 -6 -107v-235h-121v583h-55v94h55v43h107v-43h105v-94h-105v-103c3 4 7 9 11 13c36 41 90 59 138 61
c62 4 124 -6 174 -54z" />
    <glyph glyph-name="i" unicode="i" 
d="M80 734h120v-110h-120v110zM80 540v-540h120v540h-120z" />
    <glyph glyph-name="dotlessi" unicode="&#x131;" 
d="M80 540v-540h120v540h-120z" />
    <glyph glyph-name="iacute" unicode="&#xed;" 
d="M22 605l267 96l-30 88l-269 -96zM80 540v-540h120v540h-120z" />
    <glyph glyph-name="icircumflex" unicode="&#xee;" 
d="M22 606l127 69l126 -69l44 83l-170 93l-171 -93zM80 540v-540h120v540h-120z" />
    <glyph glyph-name="idieresis" unicode="&#xef;" 
d="M-18 733h110v-110h-110v110zM189 733h110v-110h-110v110zM80 540v-540h120v540h-120z" />
    <glyph glyph-name="i.loclTRK" 
d="M80 734h120v-110h-120v110zM80 540v-540h120v540h-120z" />
    <glyph glyph-name="igrave" unicode="&#xec;" 
d="M259 605l31 88l-268 96l-31 -88zM80 540v-540h120v540h-120z" />
    <glyph glyph-name="imacron" unicode="&#x12b;" 
d="M7 754h267v-94h-267v94zM80 540v-540h120v540h-120z" />
    <glyph glyph-name="iogonek" unicode="&#x12f;" 
d="M80 734h120v-110h-120v110zM80 540v-540h120v540h-120zM200 0c-19 -14 -38 -30 -53 -48c-16 -17 -30 -37 -38 -56c-3 -7 -7 -26 3 -36c13 -17 42 -7 59 7l44 -56c-10 -17 -26 -32 -48 -41c-44 -22 -99 -7 -129 32c-27 30 -33 81 -16 126c25 59 79 107 140 132z" />
    <glyph glyph-name="j" unicode="j" horiz-adv-x="288" 
d="M96 718h121v-110h-121v110zM16 -127h-26v-113h66c38 0 87 1 125 40c37 38 36 79 36 135v605h-121v-575c0 -39 -4 -57 -19 -72c-16 -16 -37 -20 -61 -20z" />
    <glyph glyph-name="k" unicode="k" horiz-adv-x="539" 
d="M70 0l1 720h122v-440l197 260h151l-210 -270l228 -270h-160l-206 260v-260h-123z" />
    <glyph glyph-name="uni0137" unicode="&#x137;" horiz-adv-x="539" 
d="M70 0l1 720h122v-440l197 260h151l-210 -270l228 -270h-160l-206 260v-260h-123zM357 -182c0 -63 -49 -105 -116 -105v53c15 0 65 6 64 52h-64v117h116v-117z" />
    <glyph glyph-name="l" unicode="l" 
d="M80 0h120v735h-120v-735z" />
    <glyph glyph-name="lacute" unicode="&#x13a;" 
d="M12 785l267 96l-30 88l-269 -96zM80 0h120v735h-120v-735z" />
    <glyph glyph-name="lcaron" unicode="&#x13e;" horiz-adv-x="438" 
d="M80 0h120v735h-120v-735zM405 588c0 -86 -41 -136 -124 -122l7 52c46 -4 63 30 57 75h-64v129h124v-134z" />
    <glyph glyph-name="uni013C" unicode="&#x13c;" 
d="M80 0h120v735h-120v-735zM192 -182c0 -63 -49 -105 -117 -105v53c15 0 65 6 65 52h-65v117h117v-117z" />
    <glyph glyph-name="lslash" unicode="&#x142;" horiz-adv-x="399" 
d="M371 531v-130l-101 -58v-343h-121v274l-122 -70v130l122 70v331h121v-262z" />
    <glyph glyph-name="m" unicode="m" horiz-adv-x="903" 
d="M788 506c50 -49 55 -105 55 -176l-1 -330h-121v322c0 44 -6 71 -31 95c-18 19 -44 29 -71 29c-29 0 -58 -12 -76 -34c-22 -25 -26 -51 -26 -80v-2v-330h-122v322c0 44 -6 71 -30 95c-18 19 -45 29 -72 29c-29 0 -57 -12 -76 -34c-22 -25 -26 -51 -26 -80v-332h-121v540
h107v-57c37 44 95 70 154 70c44 0 98 -13 132 -47c12 -12 22 -25 29 -38c37 54 99 85 165 85c44 0 98 -13 131 -47z" />
    <glyph glyph-name="n" unicode="n" horiz-adv-x="626" 
d="M501 500c63 -57 65 -152 65 -239v-261h-122v256c0 63 -8 123 -43 155c-21 21 -52 32 -90 31c-27 -1 -51 -9 -71 -25c-21 -17 -36 -43 -42 -75c-6 -26 -6 -67 -6 -106v-1v-235h-121v540h106v-61c4 4 8 9 12 14c35 41 89 59 138 61c61 4 124 -6 174 -54z" />
    <glyph glyph-name="nacute" unicode="&#x144;" horiz-adv-x="626" 
d="M482 701l-268 -96l-31 88l268 96zM501 500c63 -57 65 -152 65 -239v-261h-122v256c0 63 -8 123 -43 155c-21 21 -52 32 -90 31c-27 -1 -51 -9 -71 -25c-21 -17 -36 -43 -42 -75c-6 -26 -6 -67 -6 -106v-1v-235h-121v540h106v-61c4 4 8 9 12 14c35 41 89 59 138 61
c61 4 124 -6 174 -54z" />
    <glyph glyph-name="ncaron" unicode="&#x148;" horiz-adv-x="626" 
d="M502 700l-171 -94l-170 94l43 82l127 -69l127 69zM501 500c63 -57 65 -152 65 -239v-261h-122v256c0 63 -8 123 -43 155c-21 21 -52 32 -90 31c-27 -1 -51 -9 -71 -25c-21 -17 -36 -43 -42 -75c-6 -26 -6 -67 -6 -106v-1v-235h-121v540h106v-61c4 4 8 9 12 14
c35 41 89 59 138 61c61 4 124 -6 174 -54z" />
    <glyph glyph-name="uni0146" unicode="&#x146;" horiz-adv-x="626" 
d="M501 500c63 -57 65 -152 65 -239v-261h-122v256c0 63 -8 123 -43 155c-21 21 -52 32 -90 31c-27 -1 -51 -9 -71 -25c-21 -17 -36 -43 -42 -75c-6 -26 -6 -67 -6 -106v-1v-235h-121v540h106v-61c4 4 8 9 12 14c35 41 89 59 138 61c61 4 124 -6 174 -54zM262 -182v117h117
v-117c0 -63 -50 -105 -117 -105v53c15 0 65 6 64 52h-64z" />
    <glyph glyph-name="eng" unicode="&#x14b;" horiz-adv-x="626" 
d="M501 500c63 -57 65 -152 65 -239v-350c0 -76 -37 -124 -97 -136c-45 -9 -81 -3 -115 5v86c37 -3 90 -10 90 70v320c0 63 -8 123 -43 155c-21 21 -52 32 -90 31c-27 -1 -51 -9 -71 -25c-21 -17 -36 -43 -42 -75c-6 -26 -6 -67 -6 -106v-1v-235h-121v540h106v-61
c4 4 8 9 12 14c35 41 89 59 138 61c61 4 124 -6 174 -54z" />
    <glyph glyph-name="ntilde" unicode="&#xf1;" horiz-adv-x="626" 
d="M220 642h-72c-6 26 -3 58 9 79c13 21 34 36 57 41c33 8 67 0 98 -16c27 -12 51 -30 75 -28c23 2 27 21 21 38h71c6 -26 4 -59 -9 -79c-12 -21 -33 -37 -56 -42c-34 -8 -67 1 -99 16c-27 13 -51 30 -74 28s-27 -19 -21 -37zM501 500c63 -57 65 -152 65 -239v-261h-122v256
c0 63 -8 123 -43 155c-21 21 -52 32 -90 31c-27 -1 -51 -9 -71 -25c-21 -17 -36 -43 -42 -75c-6 -26 -6 -67 -6 -106v-1v-235h-121v540h106v-61c4 4 8 9 12 14c35 41 89 59 138 61c61 4 124 -6 174 -54z" />
    <glyph glyph-name="o" unicode="o" horiz-adv-x="618" 
d="M309 -15c-163 0 -269 118 -269 285c0 169 109 285 269 285c162 0 269 -118 269 -285c0 -168 -108 -285 -269 -285zM451 270c0 105 -48 172 -142 172c-97 0 -141 -70 -141 -172c0 -105 48 -172 141 -172c95 0 142 71 142 172z" />
    <glyph glyph-name="oacute" unicode="&#xf3;" horiz-adv-x="618" 
d="M180 605l268 96l-31 88l-268 -96zM309 -15c-163 0 -269 118 -269 285c0 169 109 285 269 285c162 0 269 -118 269 -285c0 -168 -108 -285 -269 -285zM451 270c0 105 -48 172 -142 172c-97 0 -141 -70 -141 -172c0 -105 48 -172 141 -172c95 0 142 71 142 172z" />
    <glyph glyph-name="ocircumflex" unicode="&#xf4;" horiz-adv-x="618" 
d="M183 606l127 69l126 -69l44 83l-170 93l-171 -93zM309 -15c-163 0 -269 118 -269 285c0 169 109 285 269 285c162 0 269 -118 269 -285c0 -168 -108 -285 -269 -285zM451 270c0 105 -48 172 -142 172c-97 0 -141 -70 -141 -172c0 -105 48 -172 141 -172
c95 0 142 71 142 172z" />
    <glyph glyph-name="odieresis" unicode="&#xf6;" horiz-adv-x="618" 
d="M151 733h110v-110h-110v110zM358 733h110v-110h-110v110zM309 -15c-163 0 -269 118 -269 285c0 169 109 285 269 285c162 0 269 -118 269 -285c0 -168 -108 -285 -269 -285zM451 270c0 105 -48 172 -142 172c-97 0 -141 -70 -141 -172c0 -105 48 -172 141 -172
c95 0 142 71 142 172z" />
    <glyph glyph-name="ograve" unicode="&#xf2;" horiz-adv-x="618" 
d="M438 605l31 88l-268 96l-31 -88zM309 -15c-161 0 -269 117 -269 285c0 167 107 285 269 285c160 0 269 -116 269 -285c0 -167 -106 -285 -269 -285zM167 270c0 -101 47 -172 142 -172c93 0 142 67 142 172c0 102 -45 172 -142 172c-94 0 -142 -67 -142 -172z" />
    <glyph glyph-name="ohungarumlaut" unicode="&#x151;" horiz-adv-x="618" 
d="M230 611l121 120l-57 58l-121 -119zM392 611l122 120l-57 58l-122 -119zM309 -15c-163 0 -269 118 -269 285c0 169 109 285 269 285c162 0 269 -118 269 -285c0 -168 -108 -285 -269 -285zM451 270c0 105 -48 172 -142 172c-97 0 -141 -70 -141 -172
c0 -105 48 -172 141 -172c95 0 142 71 142 172z" />
    <glyph glyph-name="omacron" unicode="&#x14d;" horiz-adv-x="618" 
d="M176 754h267v-94h-267v94zM309 -15c-163 0 -269 118 -269 285c0 169 109 285 269 285c162 0 269 -118 269 -285c0 -168 -108 -285 -269 -285zM451 270c0 105 -48 172 -142 172c-97 0 -141 -70 -141 -172c0 -105 48 -172 141 -172c95 0 142 71 142 172z" />
    <glyph glyph-name="oslash" unicode="&#xf8;" horiz-adv-x="618" 
d="M592 472l-50 -50c23 -43 36 -95 36 -152c0 -168 -108 -285 -269 -285c-62 0 -115 17 -158 47l-45 -45l-80 81l50 50c-23 43 -36 94 -36 152c0 169 109 285 269 285c61 0 115 -17 158 -47l45 45zM168 270c0 -20 2 -38 5 -55l210 209c-21 12 -45 18 -74 18
c-97 0 -141 -70 -141 -172zM451 270c0 20 -2 39 -5 56l-210 -210c20 -12 44 -18 73 -18c95 0 142 71 142 172z" />
    <glyph glyph-name="otilde" unicode="&#xf5;" horiz-adv-x="618" 
d="M475 756c6 -26 4 -59 -9 -79c-12 -21 -33 -37 -56 -42c-34 -8 -67 1 -99 16c-27 13 -51 30 -74 28s-27 -19 -21 -37h-72c-6 26 -3 58 9 79c13 21 34 36 57 41c33 8 67 0 98 -16c27 -12 51 -30 75 -28c23 2 27 21 21 38h71zM309 -15c-163 0 -269 118 -269 285
c0 169 109 285 269 285c162 0 269 -118 269 -285c0 -168 -108 -285 -269 -285zM451 270c0 105 -48 172 -142 172c-97 0 -141 -70 -141 -172c0 -105 48 -172 141 -172c95 0 142 71 142 172z" />
    <glyph glyph-name="oe" unicode="&#x153;" horiz-adv-x="1013" 
d="M580 236c10 -85 57 -138 140 -138c56 0 102 26 126 77l119 -36c-41 -97 -137 -154 -239 -154c-90 0 -164 34 -212 91c-47 -57 -118 -91 -205 -91c-163 0 -269 118 -269 285c0 169 109 285 269 285c87 0 158 -34 206 -92c47 58 118 92 205 92c175 0 264 -132 251 -319
h-391zM720 450c-82 0 -123 -48 -137 -119h265c-9 76 -43 119 -128 119zM309 98c95 0 142 71 142 172c0 105 -48 172 -142 172c-97 0 -141 -70 -141 -172c0 -105 48 -172 141 -172z" />
    <glyph glyph-name="p" unicode="p" horiz-adv-x="617" 
d="M326 555c153 0 251 -121 251 -285c0 -162 -97 -285 -247 -285c-56 0 -102 15 -139 43v-268h-121v780h107v-38c38 34 88 53 149 53zM312 93c94 0 137 78 137 177c0 98 -44 177 -141 177c-92 0 -131 -72 -131 -177s38 -177 135 -177z" />
    <glyph glyph-name="thorn" unicode="&#xfe;" horiz-adv-x="617" 
d="M326 555c153 0 251 -121 251 -285c0 -162 -97 -285 -247 -285c-56 0 -102 15 -139 43v-268h-121v960h121v-207c36 27 81 42 135 42zM312 93c94 0 137 78 137 177c0 98 -44 177 -141 177c-92 0 -131 -72 -131 -177s38 -177 135 -177z" />
    <glyph glyph-name="q" unicode="q" horiz-adv-x="617" 
d="M441 540h106v-780h-121v268c-37 -28 -83 -43 -139 -43c-150 0 -247 123 -247 285c0 164 98 285 251 285c62 0 112 -20 150 -54v39zM305 93c97 0 135 72 135 177s-39 177 -131 177c-97 0 -141 -79 -141 -177c0 -99 43 -177 137 -177z" />
    <glyph glyph-name="r" unicode="r" horiz-adv-x="399" 
d="M231 512c39 27 95 36 143 28v-112c-32 9 -78 6 -112 -13c-49 -28 -71 -77 -71 -147v-268h-121v540h107v-87c13 23 31 43 54 59z" />
    <glyph glyph-name="racute" unicode="&#x155;" horiz-adv-x="399" 
d="M369 701l-268 -96l-31 88l268 96zM231 512c39 27 95 36 143 28v-112c-32 9 -78 6 -112 -13c-49 -28 -71 -77 -71 -147v-268h-121v540h107v-87c13 23 31 43 54 59z" />
    <glyph glyph-name="rcaron" unicode="&#x159;" horiz-adv-x="399" 
d="M411 700l-170 -94l-171 94l44 82l127 -69l126 69zM231 512c39 27 95 36 143 28v-112c-32 9 -78 6 -112 -13c-49 -28 -71 -77 -71 -147v-268h-121v540h107v-87c13 23 31 43 54 59z" />
    <glyph glyph-name="uni0157" unicode="&#x157;" horiz-adv-x="399" 
d="M231 512c39 27 95 36 143 28v-112c-32 9 -78 6 -112 -13c-49 -28 -71 -77 -71 -147v-268h-121v540h107v-87c13 23 31 43 54 59zM73 -182v117h116v-117c0 -63 -49 -105 -116 -105v53c15 0 65 6 64 52h-64z" />
    <glyph glyph-name="s" unicode="s" horiz-adv-x="542" 
d="M497 396l-123 -22c-6 46 -47 75 -102 77c-53 2 -94 -19 -94 -52c0 -30 21 -44 60 -56c27 -8 55 -15 96 -26c110 -28 167 -69 167 -159c0 -111 -94 -173 -216 -173c-131 0 -224 52 -245 172l123 19c13 -58 63 -86 125 -86c50 0 90 21 90 62c0 35 -28 50 -72 62
c-47 13 -89 24 -128 36c-72 20 -120 67 -120 143c0 108 101 162 211 162c118 0 214 -55 228 -159z" />
    <glyph glyph-name="sacute" unicode="&#x15b;" horiz-adv-x="542" 
d="M161 605l267 96l-30 88l-268 -96zM497 396l-123 -22c-6 46 -47 75 -102 77c-53 2 -94 -19 -94 -52c0 -30 21 -44 60 -56c27 -8 55 -15 96 -26c110 -28 167 -69 167 -159c0 -111 -94 -173 -216 -173c-131 0 -224 52 -245 172l123 19c13 -58 63 -86 125 -86
c50 0 90 21 90 62c0 35 -28 50 -72 62c-47 13 -89 24 -128 36c-72 20 -120 67 -120 143c0 108 101 162 211 162c118 0 214 -55 228 -159z" />
    <glyph glyph-name="scaron" unicode="&#x161;" horiz-adv-x="542" 
d="M152 782l-43 -82l170 -94l171 94l-44 82l-127 -69zM497 396l-123 -22c-6 46 -47 75 -102 77c-53 2 -94 -19 -94 -52c0 -30 21 -44 60 -56c27 -8 55 -15 96 -26c110 -28 167 -69 167 -159c0 -111 -94 -173 -216 -173c-131 0 -224 52 -245 172l123 19
c13 -58 63 -86 125 -86c50 0 90 21 90 62c0 35 -28 50 -72 62c-47 13 -89 24 -128 36c-72 20 -120 67 -120 143c0 108 101 162 211 162c118 0 214 -55 228 -159z" />
    <glyph glyph-name="scedilla" unicode="&#x15f;" horiz-adv-x="542" 
d="M501 158c0 -101 -78 -162 -184 -172l-10 -28c19 -9 37 -23 48 -43c20 -33 17 -80 -5 -110c-22 -33 -59 -50 -99 -46c-21 2 -40 9 -57 18l27 71c13 -4 23 -7 32 -7c11 0 21 4 26 12c5 7 7 14 4 23c-6 21 -32 28 -64 37l25 74c-109 10 -185 63 -204 170l123 19
c13 -58 63 -86 125 -86c50 0 90 21 90 62c0 35 -28 50 -72 62c-47 13 -89 24 -128 36c-72 20 -120 67 -120 143c0 108 101 162 211 162c118 0 214 -55 228 -159l-123 -22c-6 46 -47 75 -102 77c-53 2 -94 -19 -94 -52c0 -30 21 -44 60 -56c27 -8 55 -15 96 -26
c110 -28 167 -69 167 -159z" />
    <glyph glyph-name="uni0219" unicode="&#x219;" horiz-adv-x="542" 
d="M497 396l-123 -22c-6 46 -47 75 -102 77c-53 2 -94 -19 -94 -52c0 -30 21 -44 60 -56c27 -8 55 -15 96 -26c110 -28 167 -69 167 -159c0 -111 -94 -173 -216 -173c-131 0 -224 52 -245 172l123 19c13 -58 63 -86 125 -86c50 0 90 21 90 62c0 35 -28 50 -72 62
c-47 13 -89 24 -128 36c-72 20 -120 67 -120 143c0 108 101 162 211 162c118 0 214 -55 228 -159zM336 -182c0 -63 -49 -105 -117 -105v53c15 0 65 6 65 52h-65v117h117v-117z" />
    <glyph glyph-name="germandbls" unicode="&#xdf;" horiz-adv-x="635" 
d="M70 0v530c0 27 3 49 9 70c31 95 118 135 214 135c125 0 224 -85 224 -203c0 -55 -20 -103 -61 -134c68 -25 119 -95 119 -186c0 -141 -81 -227 -230 -227c-41 0 -68 5 -92 15v118c19 -8 44 -15 76 -15c76 0 125 37 125 111c0 79 -65 115 -161 115v105c63 5 102 38 102 96
s-47 92 -102 92c-37 0 -71 -13 -89 -49c-8 -18 -12 -46 -12 -75v-498h-122z" />
    <glyph glyph-name="t" unicode="t" horiz-adv-x="433" 
d="M228 446v-219c0 -42 -2 -76 11 -97c13 -22 37 -31 59 -33c27 -2 60 0 89 4v-101c-41 -11 -109 -11 -148 -4c-49 8 -81 25 -109 68c-27 42 -22 95 -22 157v225h-98v94h98v150h120v-150h159v-94h-159z" />
    <glyph glyph-name="tbar" unicode="&#x167;" horiz-adv-x="453" 
d="M228 232v-5c0 -42 -2 -76 11 -97c13 -22 37 -31 59 -33c27 -2 60 0 89 4v-101c-41 -11 -109 -11 -148 -4c-49 8 -81 25 -109 68c-27 42 -22 95 -22 157v11h-98v94h98v120h-98v94h98v150h120v-150h159v-94h-159v-120h175v-94h-175z" />
    <glyph glyph-name="tcaron" unicode="&#x165;" horiz-adv-x="433" 
d="M340 859h123v-133c0 -87 -40 -136 -123 -122l7 51c46 -3 63 31 57 76h-64v128zM228 690v-150h159v-94h-159v-219c0 -42 -2 -76 11 -97c13 -22 37 -31 59 -33c27 -2 60 0 89 4v-101c-41 -11 -109 -11 -148 -4c-49 8 -81 25 -109 68c-27 42 -22 95 -22 157v225h-98v94h98
v150h120z" />
    <glyph glyph-name="uni0163" unicode="&#x163;" horiz-adv-x="453" 
d="M228 446v-219c0 -42 -2 -76 11 -97c13 -22 37 -31 59 -33c27 -2 60 0 89 4v-101c-37 -10 -94 -11 -134 -6l-13 -37c18 -9 36 -23 48 -43c19 -33 16 -80 -5 -110c-23 -33 -59 -50 -99 -46c-21 2 -40 9 -57 18l27 71c13 -4 23 -7 31 -7c12 0 22 4 26 12c5 7 7 14 4 23
c-6 21 -31 28 -63 37l34 100c-22 10 -40 27 -56 52c-27 42 -22 95 -22 157v225h-98v94h98v150h120v-150h159v-94h-159z" />
    <glyph glyph-name="uni021B" unicode="&#x21b;" horiz-adv-x="433" 
d="M228 446v-219c0 -42 -2 -76 11 -97c13 -22 37 -31 59 -33c27 -2 60 0 89 4v-101c-41 -11 -109 -11 -148 -4c-49 8 -81 25 -109 68c-27 42 -22 95 -22 157v225h-98v94h98v150h120v-150h159v-94h-159zM181 -182v117h117v-117c0 -63 -49 -105 -117 -105v53c15 0 65 6 65 52
h-65z" />
    <glyph glyph-name="u" unicode="u" horiz-adv-x="626" 
d="M434 540h122v-540h-107v61c-4 -4 -8 -9 -12 -14c-35 -41 -89 -59 -138 -61c-61 -4 -123 6 -174 54c-63 57 -65 152 -65 239v261h122v-256c0 -63 8 -123 43 -155c21 -21 52 -32 90 -31c27 1 51 10 71 25c21 17 36 43 42 75c6 26 6 68 6 106v1v235z" />
    <glyph glyph-name="uacute" unicode="&#xfa;" horiz-adv-x="626" 
d="M454 701l-267 -96l-31 88l268 96zM434 540h122v-540h-107v61c-4 -4 -8 -9 -12 -14c-35 -41 -89 -59 -138 -61c-61 -4 -123 6 -174 54c-63 57 -65 152 -65 239v261h122v-256c0 -63 8 -123 43 -155c21 -21 52 -32 90 -31c27 1 51 10 71 25c21 17 36 43 42 75
c6 26 6 68 6 106v1v235z" />
    <glyph glyph-name="ucircumflex" unicode="&#xfb;" horiz-adv-x="626" 
d="M308 675l-127 -69l-44 83l171 93l170 -93l-44 -83zM434 540h122v-540h-107v61c-4 -4 -8 -9 -12 -14c-35 -41 -89 -59 -138 -61c-61 -4 -123 6 -174 54c-63 57 -65 152 -65 239v261h122v-256c0 -63 8 -123 43 -155c21 -21 52 -32 90 -31c27 1 51 10 71 25
c21 17 36 43 42 75c6 26 6 68 6 106v1v235z" />
    <glyph glyph-name="udieresis" unicode="&#xfc;" horiz-adv-x="626" 
d="M259 733v-110h-110v110h110zM466 733v-110h-110v110h110zM434 540h122v-540h-107v61c-4 -4 -8 -9 -12 -14c-35 -41 -89 -59 -138 -61c-61 -4 -123 6 -174 54c-63 57 -65 152 -65 239v261h122v-256c0 -63 8 -123 43 -155c21 -21 52 -32 90 -31c27 1 51 10 71 25
c21 17 36 43 42 75c6 26 6 68 6 106v1v235z" />
    <glyph glyph-name="ugrave" unicode="&#xf9;" horiz-adv-x="626" 
d="M475 693l-31 -88l-268 96l31 88zM434 540h122v-540h-107v61c-4 -4 -8 -9 -12 -14c-35 -41 -89 -59 -138 -61c-61 -4 -123 6 -174 54c-63 57 -65 152 -65 239v261h122v-256c0 -63 8 -123 43 -155c21 -21 52 -32 90 -31c27 1 51 10 71 25c21 17 36 43 42 75
c6 26 6 68 6 106v1v235z" />
    <glyph glyph-name="uhungarumlaut" unicode="&#x171;" horiz-adv-x="626" 
d="M345 731l-122 -120l-57 59l122 119zM386 611l-57 59l121 119l57 -58zM434 540h122v-540h-107v61c-4 -4 -8 -9 -12 -14c-35 -41 -89 -59 -138 -61c-61 -4 -123 6 -174 54c-63 57 -65 152 -65 239v261h122v-256c0 -63 8 -123 43 -155c21 -21 52 -32 90 -31
c27 1 51 10 71 25c21 17 36 43 42 75c6 26 6 68 6 106v1v235z" />
    <glyph glyph-name="umacron" unicode="&#x16b;" horiz-adv-x="626" 
d="M441 754v-94h-267v94h267zM434 540h122v-540h-107v61c-4 -4 -8 -9 -12 -14c-35 -41 -89 -59 -138 -61c-61 -4 -123 6 -174 54c-63 57 -65 152 -65 239v261h122v-256c0 -63 8 -123 43 -155c21 -21 52 -32 90 -31c27 1 51 10 71 25c21 17 36 43 42 75c6 26 6 68 6 106v1
v235z" />
    <glyph glyph-name="uogonek" unicode="&#x173;" horiz-adv-x="626" 
d="M517 -133l43 -56c-10 -17 -26 -32 -47 -41c-45 -22 -100 -7 -130 32c-27 30 -33 81 -15 126c16 39 45 73 81 99v34c-4 -4 -8 -9 -12 -14c-35 -41 -89 -59 -138 -61c-61 -4 -123 6 -174 54c-63 57 -65 152 -65 239v261h122v-256c0 -63 8 -123 43 -155
c21 -21 52 -32 90 -31c27 1 51 10 71 25c21 17 36 43 42 75c6 26 6 68 6 106v1v235h122v-540h-10c-20 -14 -39 -30 -54 -48c-16 -17 -30 -37 -38 -56c-2 -7 -7 -26 3 -36c13 -17 42 -7 60 7z" />
    <glyph glyph-name="uring" unicode="&#x16f;" horiz-adv-x="626" 
d="M308 566c-80 0 -146 66 -146 146s66 146 146 146s145 -66 145 -146s-65 -146 -145 -146zM308 772c-33 0 -60 -27 -60 -60s27 -60 60 -60s60 27 60 60s-27 60 -60 60zM434 540h122v-540h-107v61c-4 -4 -8 -9 -12 -14c-35 -41 -89 -59 -138 -61c-61 -4 -123 6 -174 54
c-63 57 -65 152 -65 239v261h122v-256c0 -63 8 -123 43 -155c21 -21 52 -32 90 -31c27 1 51 10 71 25c21 17 36 43 42 75c6 26 6 68 6 106v1v235z" />
    <glyph glyph-name="v" unicode="v" horiz-adv-x="553" 
d="M412 540h121l-196 -540h-121l-196 540h121l136 -391z" />
    <glyph glyph-name="w" unicode="w" horiz-adv-x="802" 
d="M664 540h118l-165 -540h-101l-115 372l-122 -372h-94l-165 541l119 -1l106 -346l106 346h101l107 -346z" />
    <glyph glyph-name="wacute" unicode="&#x1e83;" horiz-adv-x="802" 
d="M264 605l268 96l-31 88l-268 -96zM664 540h118l-165 -540h-101l-115 372l-122 -372h-94l-165 541l119 -1l106 -346l106 346h101l107 -346z" />
    <glyph glyph-name="wcircumflex" unicode="&#x175;" horiz-adv-x="802" 
d="M274 606l127 69l127 -69l44 83l-171 93l-170 -93zM664 540h118l-165 -540h-101l-115 372l-122 -372h-94l-165 541l119 -1l106 -346l106 346h101l107 -346z" />
    <glyph glyph-name="wdieresis" unicode="&#x1e85;" horiz-adv-x="802" 
d="M243 733h110v-110h-110v110zM450 733h110v-110h-110v110zM664 540h118l-165 -540h-101l-115 372l-122 -372h-94l-165 541l119 -1l106 -346l106 346h101l107 -346z" />
    <glyph glyph-name="wgrave" unicode="&#x1e81;" horiz-adv-x="802" 
d="M516 605l31 88l-268 96l-31 -88zM664 540h118l-165 -540h-101l-115 372l-122 -372h-94l-165 541l119 -1l106 -346l106 346h101l107 -346z" />
    <glyph glyph-name="x" unicode="x" horiz-adv-x="554" 
d="M539 540l-193 -267l198 -273h-142l-124 179l-126 -179h-142l198 273l-194 267h142l122 -173l119 173h142z" />
    <glyph glyph-name="y" unicode="y" horiz-adv-x="559" 
d="M434 540h121l-301 -780l-113 1l88 239l1 4l-218 536h125l151 -385z" />
    <glyph glyph-name="yacute" unicode="&#xfd;" horiz-adv-x="559" 
d="M450 701l-267 -96l-31 88l268 96zM434 540h121l-301 -780l-113 1l88 239l1 4l-218 536h125l151 -385z" />
    <glyph glyph-name="ycircumflex" unicode="&#x177;" horiz-adv-x="559" 
d="M288 675l-127 -69l-44 83l171 93l170 -93l-44 -83zM434 540h121l-301 -780l-113 1l88 239l1 4l-218 536h125l151 -385z" />
    <glyph glyph-name="ydieresis" unicode="&#xff;" horiz-adv-x="559" 
d="M241 733v-110h-110v110h110zM447 733v-110h-110v110h110zM434 540h121l-301 -780l-113 1l88 239l1 4l-218 536h125l151 -385z" />
    <glyph glyph-name="ygrave" unicode="&#x1ef3;" horiz-adv-x="559" 
d="M446 693l-31 -88l-268 96l31 88zM434 540h121l-301 -780l-113 1l88 239l1 4l-218 536h125l151 -385z" />
    <glyph glyph-name="z" unicode="z" horiz-adv-x="534" 
d="M481 106v-106h-461v17l286 417h-257v106h445v-17l-285 -417h272z" />
    <glyph glyph-name="zacute" unicode="&#x17a;" horiz-adv-x="534" 
d="M173 605l268 96l-31 88l-268 -96zM481 106v-106h-461v17l286 417h-257v106h445v-17l-285 -417h272z" />
    <glyph glyph-name="zcaron" unicode="&#x17e;" horiz-adv-x="534" 
d="M150 782l-44 -82l171 -94l170 94l-43 82l-127 -69zM481 106v-106h-461v17l286 417h-257v106h445v-17l-285 -417h272z" />
    <glyph glyph-name="zdotaccent" unicode="&#x17c;" horiz-adv-x="534" 
d="M216 770h123v-123h-123v123zM481 106v-106h-461v17l286 417h-257v106h445v-17l-285 -417h272z" />
    <glyph glyph-name="f_i" horiz-adv-x="697" 
d="M153 688c45 51 108 47 148 47h67v-98h-62c-47 0 -68 -25 -68 -62v-35h130v-94h-130v-446h-121v446h-87v94h87v9c0 41 -1 98 36 139zM497 734h120v-110h-120v110zM497 0v540h120v-540h-120z" />
    <glyph glyph-name="uni0410" unicode="&#x410;" horiz-adv-x="671" 
d="M527 0l-50 156h-284l-49 -156h-124l227 720h177l227 -720h-124zM229 269h212l-107 334z" />
    <glyph glyph-name="uni0411" unicode="&#x411;" horiz-adv-x="639" 
d="M425 449c121 -14 184 -109 184 -223s-62 -209 -184 -223c-19 -2 -43 -3 -57 -3h-298v720h482v-113h-362v-155h178c13 0 38 -1 57 -3zM408 117c60 13 79 63 79 109s-19 97 -79 109c-14 3 -32 4 -45 4h-173v-226h173c13 0 31 1 45 4z" />
    <glyph glyph-name="uni0412" unicode="&#x412;" horiz-adv-x="639" 
d="M547 346c34 -31 55 -82 54 -131c0 -61 -17 -119 -59 -159c-43 -42 -86 -56 -173 -56h-299v720h285c62 0 110 -14 152 -54c42 -39 60 -90 61 -147c1 -49 -20 -94 -49 -120c-8 -8 -17 -14 -26 -20c20 -8 38 -19 54 -33zM354 607h-162v-174h162c32 0 56 11 73 30
c14 16 18 37 18 58c0 22 -7 45 -24 62s-40 24 -67 24zM450 144c20 19 29 43 29 71c0 26 -7 53 -25 73c-23 25 -56 32 -81 32h-181v-206h178c34 0 58 9 80 30z" />
    <glyph glyph-name="uni0413" unicode="&#x413;" horiz-adv-x="545" 
d="M535 720v-113h-345v-607h-120v720h465z" />
    <glyph glyph-name="uni0403" unicode="&#x403;" horiz-adv-x="545" 
d="M419 881l-268 -96l-31 88l268 96zM535 720v-113h-345v-607h-120v720h465z" />
    <glyph glyph-name="uni0490" unicode="&#x490;" horiz-adv-x="555" 
d="M545 808v-195h-10v-6h-345v-607h-120v720h355v88h120z" />
    <glyph glyph-name="uni0414" unicode="&#x414;" horiz-adv-x="761" 
d="M666 95h55v-183h-121v88h-440v-88h-120v183c48 34 85 121 112 244s32 233 42 382l472 -1v-625zM546 95v531h-242c-7 -104 -16 -199 -40 -309c-23 -106 -44 -169 -79 -222h361z" />
    <glyph glyph-name="uni0415" unicode="&#x415;" horiz-adv-x="585" 
d="M535 607h-345v-178h285v-112h-285v-204h345v-113h-465v720h465v-113z" />
    <glyph glyph-name="uni0400" unicode="&#x400;" horiz-adv-x="585" 
d="M455 873l-31 -88l-267 96l30 88zM535 607h-345v-178h285v-112h-285v-204h345v-113h-465v720h465v-113z" />
    <glyph glyph-name="uni0401" unicode="&#x401;" horiz-adv-x="585" 
d="M251 950v-110h-110v110h110zM458 950v-110h-110v110h110zM535 607h-345v-178h285v-112h-285v-204h345v-113h-465v720h465v-113z" />
    <glyph glyph-name="uni0416" unicode="&#x416;" horiz-adv-x="1021" 
d="M10 0l244 375l-95 180c-12 23 -31 39 -50 46c-18 7 -34 9 -64 7l-10 112c33 13 83 15 129 -6c44 -20 71 -58 93 -101l100 -191h92v298h123v-298h93l99 191c22 43 49 81 93 101c46 21 97 19 129 6l-9 -112c-31 2 -47 0 -65 -7c-19 -7 -37 -23 -50 -46l-95 -180l244 -375
h-146l-205 327h-88v-327h-123v327h-88l-205 -327h-146z" />
    <glyph glyph-name="uni0417" unicode="&#x417;" horiz-adv-x="660" 
d="M67 626c27 27 66 54 103 73c50 24 107 36 162 36c65 0 137 -15 188 -53c52 -37 81 -96 81 -159c0 -27 -10 -65 -25 -88c-9 -21 -25 -42 -43 -60c22 -14 40 -30 55 -53c23 -30 32 -66 32 -114c0 -67 -39 -134 -94 -172c-57 -41 -129 -51 -191 -51c-60 0 -126 10 -177 38
c-50 28 -89 66 -118 116l90 69c19 -32 48 -60 81 -80c39 -22 82 -30 123 -30c38 0 75 5 106 24c34 21 53 50 52 87c0 31 -9 54 -33 73c-27 22 -65 28 -106 31c-36 2 -73 2 -109 2v114c36 0 73 0 109 2c37 2 66 6 89 24c22 17 31 43 30 67c0 29 -11 51 -34 70
c-29 23 -73 30 -108 30c-43 0 -75 -10 -112 -28c-31 -16 -56 -35 -76 -55z" />
    <glyph glyph-name="uni0418" unicode="&#x418;" horiz-adv-x="718" 
d="M526 720h122v-720h-122v508l-334 -508h-122v720h122v-507z" />
    <glyph glyph-name="uni0419" unicode="&#x419;" horiz-adv-x="718" 
d="M439 932h94c0 -84 -67 -152 -151 -152s-152 68 -152 152h94c0 -32 26 -58 58 -58s57 26 57 58zM526 720h122v-720h-122v508l-334 -508h-122v720h122v-507z" />
    <glyph glyph-name="uni040D" unicode="&#x40d;" horiz-adv-x="718" 
d="M485 785l31 88l-268 96l-31 -88zM526 720h122v-720h-122v508l-334 -508h-122v720h122v-507z" />
    <glyph glyph-name="uni041A" unicode="&#x41a;" horiz-adv-x="649" 
d="M70 0v720h122v-334l288 334h148l-310 -353l331 -367h-153l-304 336v-336h-122z" />
    <glyph glyph-name="uni040C" unicode="&#x40c;" horiz-adv-x="649" 
d="M229 785l267 96l-30 88l-268 -96zM70 0v720h122v-334l288 334h148l-310 -353l331 -367h-153l-304 336v-336h-122z" />
    <glyph glyph-name="uni041B" unicode="&#x41b;" horiz-adv-x="722" 
d="M652 720v-720h-120v607h-250c-8 -122 -19 -266 -46 -413c-26 -140 -64 -226 -216 -194v101c65 -6 86 30 104 139c29 165 39 312 47 480h481z" />
    <glyph glyph-name="uni041C" unicode="&#x41c;" horiz-adv-x="855" 
d="M785 720v-720h-113v462l-220 -462h-48l-221 461v-461h-113v720h108l250 -510l249 510h108z" />
    <glyph glyph-name="uni041D" unicode="&#x41d;" horiz-adv-x="722" 
d="M531 720h121v-720h-121v304h-341v-304h-120v720h120v-303h341v303z" />
    <glyph glyph-name="uni041E" unicode="&#x41e;" horiz-adv-x="769" 
d="M385 -15c-213 0 -345 157 -345 375s131 376 345 375c215 -1 340 -151 344 -375c-3 -224 -132 -375 -344 -375zM385 99c145 -2 217 107 217 261c0 157 -73 260 -217 261c-144 2 -220 -108 -218 -261c1 -158 72 -260 218 -261z" />
    <glyph glyph-name="uni041F" unicode="&#x41f;" horiz-adv-x="768" 
d="M698 720v-720h-120v607h-388v-607h-120v720h628z" />
    <glyph glyph-name="uni0420" unicode="&#x420;" horiz-adv-x="639" 
d="M425 716c125 -19 184 -111 184 -230s-60 -211 -184 -231c-19 -3 -44 -4 -57 -4h-178v-251h-120v720h298c14 0 38 -1 57 -4zM408 369c60 15 79 71 79 117s-19 101 -79 116c-14 4 -32 5 -45 5h-173v-243h173c13 0 31 1 45 5z" />
    <glyph glyph-name="uni0421" unicode="&#x421;" horiz-adv-x="731" 
d="M577 242l118 -29c-17 -57 -44 -110 -98 -156c-61 -53 -136 -72 -220 -72c-105 0 -196 41 -255 117c-58 75 -82 165 -82 258c0 98 22 188 81 259c63 78 153 116 256 116c86 0 160 -21 219 -73c59 -50 88 -109 104 -174l-121 -17c-8 27 -20 52 -36 74
c-39 51 -92 75 -158 76s-129 -25 -166 -76c-40 -50 -53 -118 -52 -185c1 -66 11 -133 52 -185c37 -51 100 -75 166 -76c65 -1 120 25 158 76c15 20 26 43 34 67z" />
    <glyph glyph-name="uni0422" unicode="&#x422;" horiz-adv-x="607" 
d="M597 720v-113h-233v-607h-121v607h-233v113h587z" />
    <glyph glyph-name="uni0423" unicode="&#x423;" horiz-adv-x="637" 
d="M508 720h124l-338 -720h-127l94 185l-249 535h122l185 -410z" />
    <glyph glyph-name="uni040E" unicode="&#x40e;" horiz-adv-x="637" 
d="M387 932h94c0 -84 -68 -152 -152 -152s-151 68 -151 152h94c0 -32 25 -58 57 -58s58 26 58 58zM508 720h124l-338 -720h-127l94 185l-249 535h122l185 -410z" />
    <glyph glyph-name="uni0424" unicode="&#x424;" horiz-adv-x="775" 
d="M621 610c76 -53 115 -137 114 -229c1 -95 -38 -176 -115 -229c-55 -37 -114 -53 -173 -59v-93h-119v93c-59 6 -119 23 -173 59c-73 52 -115 134 -115 229c0 92 38 176 114 229c55 38 114 55 174 62v48h119v-48c59 -6 119 -24 174 -62zM550 255c41 29 58 71 58 126
c0 54 -18 96 -59 124c-27 20 -63 33 -102 39v-329c39 6 75 19 103 40zM225 255c27 -20 64 -33 103 -39v328c-39 -7 -75 -19 -102 -39c-41 -28 -58 -70 -58 -124c0 -55 16 -97 57 -126z" />
    <glyph glyph-name="uni0425" unicode="&#x425;" horiz-adv-x="656" 
d="M403 364l243 -364h-148l-169 262l-171 -262h-148l244 364l-237 356h147l165 -253l162 253h149z" />
    <glyph glyph-name="uni0427" unicode="&#x427;" horiz-adv-x="676" 
d="M485 720h121v-720h-121v285c-40 -31 -90 -47 -155 -47c-80 0 -158 26 -207 89c-48 62 -53 126 -53 207v186h122v-161c0 -59 4 -112 35 -153c30 -38 76 -51 121 -51c62 0 109 16 137 42v323z" />
    <glyph glyph-name="uni0426" unicode="&#x426;" horiz-adv-x="750" 
d="M660 107h80v-195h-120v88h-550v720h120v-613h350v596h120v-596z" />
    <glyph glyph-name="uni0428" unicode="&#x428;" horiz-adv-x="947" 
d="M756 720h121v-720h-807v720h120v-607h223v607h121v-607h222v607z" />
    <glyph glyph-name="uni0429" unicode="&#x429;" horiz-adv-x="967" 
d="M877 107h80v-195h-121v88h-766v720h120v-607h223v607h121v-607h222v607h121v-613z" />
    <glyph glyph-name="uni040F" unicode="&#x40f;" horiz-adv-x="768" 
d="M578 720h120v-720h-254v-120h-120v120h-254v720h120v-607h388v607z" />
    <glyph glyph-name="uni042C" unicode="&#x42c;" horiz-adv-x="639" 
d="M425 465c124 -20 184 -112 184 -231c0 -118 -59 -211 -184 -230c-19 -3 -43 -4 -57 -4h-298v720h120v-251h178c13 0 38 -1 57 -4zM408 118c60 15 79 70 79 116s-19 102 -79 117c-14 4 -32 5 -45 5h-173v-243h173c13 0 31 1 45 5z" />
    <glyph glyph-name="uni042A" unicode="&#x42a;" horiz-adv-x="650" 
d="M444 465c124 -20 183 -112 183 -231c0 -118 -59 -211 -183 -230c-19 -3 -44 -4 -58 -4h-298v626h-98v94h219v-251h177c13 0 39 -1 58 -4zM427 118c59 15 78 70 78 116s-19 102 -78 117c-15 4 -33 5 -46 5h-172v-243h172c13 0 31 1 46 5z" />
    <glyph glyph-name="uni042B" unicode="&#x42b;" horiz-adv-x="861" 
d="M425 465c124 -20 184 -112 184 -231c0 -118 -59 -211 -184 -230c-19 -3 -43 -4 -57 -4h-298v720h120v-251h178c13 0 38 -1 57 -4zM670 720h121v-720h-121v720zM408 118c60 15 79 70 79 116s-19 102 -79 117c-14 4 -32 5 -45 5h-173v-243h173c13 0 31 1 45 5z" />
    <glyph glyph-name="uni0409" unicode="&#x409;" horiz-adv-x="1091" 
d="M877 465c124 -20 184 -112 184 -231c0 -118 -59 -211 -184 -230c-19 -3 -43 -4 -57 -4h-298v607h-250c-8 -122 -19 -266 -46 -413c-26 -140 -64 -226 -216 -194v101c65 -6 86 30 104 139c29 165 39 312 47 480h481v-251h178c13 0 38 -1 57 -4zM860 118
c60 15 79 70 79 116s-19 102 -79 117c-14 4 -32 5 -45 5h-173v-243h173c13 0 31 1 45 5z" />
    <glyph glyph-name="uni040A" unicode="&#x40a;" horiz-adv-x="1093" 
d="M880 465c124 -20 183 -112 183 -231c0 -118 -58 -211 -183 -230c-19 -3 -44 -4 -58 -4h-297v355h-335v-355h-120v720h120v-252h335v252h120v-251h177c13 0 39 -1 58 -4zM863 118c59 15 78 70 78 116s-19 102 -78 117c-15 4 -32 5 -46 5h-172v-243h172c14 0 31 1 46 5z
" />
    <glyph glyph-name="uni0405" unicode="&#x405;" horiz-adv-x="641" 
d="M605 523l-129 -22c-8 40 -33 73 -65 94c-25 15 -57 26 -92 26c-35 1 -66 -7 -90 -21c-24 -15 -44 -39 -44 -69c0 -15 4 -33 17 -46c16 -17 47 -30 87 -42l126 -34c62 -18 120 -42 148 -72c38 -40 48 -80 48 -140c0 -57 -30 -108 -75 -146c-57 -49 -128 -66 -208 -66
c-93 0 -174 27 -236 95c-37 42 -55 89 -62 133l125 19c6 -23 20 -56 44 -80c33 -33 81 -54 133 -54c41 0 87 10 115 32c25 19 38 44 38 70c0 21 -8 42 -24 56c-18 17 -42 25 -73 34l-134 39c-60 17 -109 31 -145 66c-38 36 -51 81 -51 132c0 67 34 124 84 159
c50 36 115 49 179 49c49 -1 105 -10 152 -36c59 -33 112 -87 132 -176z" />
    <glyph glyph-name="uni0404" unicode="&#x404;" horiz-adv-x="753" 
d="M543 175c15 20 26 43 34 67l118 -29c-17 -57 -43 -110 -98 -156c-60 -53 -136 -72 -220 -72c-105 0 -196 41 -255 117c-58 75 -82 165 -82 258c0 98 22 188 81 259c63 78 153 116 256 116c86 0 161 -21 219 -73c60 -50 89 -109 104 -174l-121 -17c-8 27 -20 52 -36 74
c-39 51 -92 75 -158 76s-129 -25 -166 -76c-28 -35 -43 -79 -49 -125h256v-120h-255c6 -45 19 -89 48 -125c37 -51 100 -75 166 -76c65 -1 120 25 158 76z" />
    <glyph glyph-name="uni042D" unicode="&#x42d;" horiz-adv-x="753" 
d="M632 619c59 -71 81 -161 81 -259c0 -93 -24 -183 -82 -258c-59 -76 -150 -117 -255 -117c-84 0 -159 19 -220 72c-54 46 -81 99 -98 156l118 29c8 -24 19 -47 34 -67c38 -51 93 -77 158 -76c66 1 129 25 166 76c29 36 42 80 48 125h-255v120h256c-6 46 -21 90 -49 125
c-37 51 -100 77 -166 76s-119 -25 -158 -76c-16 -22 -28 -47 -36 -74l-121 17c16 65 45 124 104 174c59 52 133 73 219 73c103 0 193 -38 256 -116z" />
    <glyph glyph-name="uni0406" unicode="&#x406;" 
d="M80 720h120v-720h-120v720z" />
    <glyph glyph-name="uni0407" unicode="&#x407;" 
d="M-18 950h110v-110h-110v110zM189 950h110v-110h-110v110zM80 720h120v-720h-120v720z" />
    <glyph glyph-name="uni0408" unicode="&#x408;" horiz-adv-x="501" 
d="M421 720h-122v-485c0 -40 0 -67 -10 -89c-13 -32 -50 -48 -80 -48c-42 0 -83 34 -90 75l-119 -29c28 -95 106 -159 209 -159c86 0 147 31 188 98c27 50 24 83 24 152v485z" />
    <glyph glyph-name="uni040B" unicode="&#x40b;" horiz-adv-x="676" 
d="M554 393c48 -61 52 -126 52 -206v-187h-122v161c0 59 -4 112 -35 153c-30 39 -76 51 -121 51c-62 0 -108 -16 -137 -42v-323h-121v613h-70v107h345v-107h-154v-178c41 31 90 47 155 47c80 0 158 -26 208 -89z" />
    <glyph glyph-name="uni042E" unicode="&#x42e;" horiz-adv-x="1049" 
d="M665 735c215 -1 340 -151 344 -375c-3 -224 -132 -375 -344 -375c-193 0 -319 129 -342 315h-133v-300h-120v720h120v-300h133c22 186 148 316 342 315zM665 99c145 -2 217 107 217 261c0 157 -73 260 -217 261c-144 2 -220 -108 -218 -261c1 -158 72 -260 218 -261z" />
    <glyph glyph-name="uni042F" unicode="&#x42f;" horiz-adv-x="640" 
d="M570 720v-720h-120v251h-171l-122 -251h-137l133 273c-82 37 -121 116 -121 213c0 119 58 211 183 230c19 3 44 4 58 4h297zM278 364h172v243h-172c-14 0 -32 -1 -46 -5c-60 -15 -79 -70 -79 -116s19 -102 79 -117c14 -4 32 -5 46 -5z" />
    <glyph glyph-name="uni0402" unicode="&#x402;" horiz-adv-x="676" 
d="M373 555c170 0 263 -99 263 -261c0 -191 -82 -294 -268 -294v122c111 0 146 69 146 164c0 108 -64 153 -153 153c-84 0 -135 -37 -151 -91c-8 -30 -10 -59 -10 -87v-261h-122v613h-78v107h345v-107h-160v-124c46 43 113 66 188 66z" />
    <glyph glyph-name="uni04AE" unicode="&#x4ae;" horiz-adv-x="612" 
d="M471 720h141l-245 -425v-295h-122v295l-245 425h141l165 -287z" />
    <glyph glyph-name="uni04BA" unicode="&#x4ba;" horiz-adv-x="676" 
d="M191 0h-121v720h121v-285c41 31 90 47 155 47c80 0 158 -26 208 -89c48 -61 52 -126 52 -206v-187h-122v161c0 59 -4 112 -35 153c-30 39 -76 51 -121 51c-62 0 -108 -16 -137 -42v-323z" />
    <glyph glyph-name="uni04E8" unicode="&#x4e8;" horiz-adv-x="769" 
d="M385 735c215 -1 340 -151 344 -375c-3 -224 -132 -375 -344 -375c-213 0 -345 157 -345 375s131 376 345 375zM385 621c-124 2 -198 -80 -214 -201h427c-17 123 -88 200 -213 201zM385 99c125 -2 196 79 213 201h-427c17 -123 87 -200 214 -201z" />
    <glyph glyph-name="uni0414.loclBGR" horiz-adv-x="765" 
d="M658 113h61v-201h-114v88h-454v-88h-113v201h61l191 607h177zM223 113h311l-157 490z" />
    <glyph glyph-name="uni0416.loclBGR" horiz-adv-x="1021" 
d="M10 0l244 375l-95 180c-12 23 -31 39 -50 46c-18 7 -34 9 -64 7l-10 112c33 13 83 15 129 -6c44 -20 71 -58 93 -101l100 -191h92v298h123v-298h93l99 191c22 43 49 81 93 101c46 21 97 19 129 6l-9 -112c-31 2 -47 0 -65 -7c-19 -7 -37 -23 -50 -46l-95 -180l244 -375
h-146l-205 327h-88v-327h-123v327h-88l-205 -327h-146z" />
    <glyph glyph-name="uni041A.loclBGR" horiz-adv-x="649" 
d="M70 0v720h122v-334l288 334h148l-310 -353l331 -367h-153l-304 336v-336h-122z" />
    <glyph glyph-name="uni041B.loclBGR" horiz-adv-x="641" 
d="M232 720h177l227 -720h-124l-193 603l-190 -603h-124z" />
    <glyph glyph-name="uni0430" unicode="&#x430;" horiz-adv-x="576" 
d="M516 0h-105v71c-47 -58 -100 -86 -193 -86c-108 0 -178 67 -178 168c0 77 41 124 104 149c71 28 162 38 253 51c-6 65 -52 92 -109 92c-54 0 -100 -23 -120 -75l-109 34c34 84 114 151 233 151c111 0 185 -47 213 -135c8 -28 11 -60 11 -95v-325zM378 152
c17 31 19 75 19 102c-76 -11 -116 -17 -164 -30c-44 -13 -75 -34 -75 -74c0 -37 30 -70 87 -70s108 30 133 72z" />
    <glyph glyph-name="uni0431" unicode="&#x431;" horiz-adv-x="598" 
d="M313 506c71 0 140 -27 184 -82c41 -49 61 -117 61 -181c2 -71 -24 -137 -70 -186c-51 -51 -121 -74 -193 -72c-71 0 -141 29 -188 83c-46 53 -62 115 -65 183c-4 74 -2 140 8 210c12 80 46 156 114 204c65 45 148 55 230 55c45 0 85 -5 120 -11v-111c-40 5 -85 9 -120 10
c-61 1 -126 -2 -165 -31c-44 -30 -56 -82 -62 -132c39 38 92 60 146 61zM300 399c-39 0 -76 -14 -99 -42c-24 -27 -32 -66 -32 -105c0 -41 8 -80 32 -107c23 -28 60 -41 99 -41s76 13 99 41c24 27 32 66 32 106c0 39 -8 79 -32 106c-23 28 -60 42 -99 42z" />
    <glyph glyph-name="uni0432" unicode="&#x432;" horiz-adv-x="560" 
d="M70 540h245c39 0 66 -4 90 -11c51 -13 98 -60 98 -135c0 -47 -15 -75 -40 -95c-11 -10 -23 -16 -35 -20c12 -2 26 -6 37 -12c36 -17 65 -53 65 -108c0 -80 -35 -130 -103 -149c-25 -7 -58 -10 -92 -10h-265v540zM192 446v-129h100c20 0 41 2 55 8c21 9 32 31 32 57
s-11 50 -36 58c-15 4 -35 6 -53 6h-98zM192 222v-129h135c14 0 32 3 45 8c24 8 35 33 35 58c0 32 -19 51 -42 58c-12 5 -25 5 -41 5h-132z" />
    <glyph glyph-name="uni0433" unicode="&#x433;" horiz-adv-x="480" 
d="M455 540v-113h-265v-427h-120v540h385z" />
    <glyph glyph-name="uni0453" unicode="&#x453;" horiz-adv-x="480" 
d="M130 605l267 96l-30 88l-269 -96zM455 540v-113h-265v-427h-120v540h385z" />
    <glyph glyph-name="uni0491" unicode="&#x491;" horiz-adv-x="480" 
d="M335 628h120v-201h-265v-427h-120v540h265v88z" />
    <glyph glyph-name="uni0434" unicode="&#x434;" horiz-adv-x="623" 
d="M539 540v-445h54v-183h-113v88h-336v-88h-114v183c38 15 71 72 89 159c16 78 23 172 27 286h393zM419 95v351h-168c-4 -72 -10 -149 -24 -211c-12 -60 -32 -114 -55 -140h247z" />
    <glyph glyph-name="uni0435" unicode="&#x435;" horiz-adv-x="602" 
d="M170 236c9 -85 56 -138 139 -138c56 0 102 26 126 77l119 -36c-40 -97 -137 -154 -239 -154c-167 0 -275 117 -275 279c0 174 106 291 269 291c175 0 264 -132 251 -319h-390zM309 450c-82 0 -123 -48 -136 -119h265c-10 76 -44 119 -129 119z" />
    <glyph glyph-name="uni0450" unicode="&#x450;" horiz-adv-x="602" 
d="M490 693l-31 -88l-268 96l31 88zM170 236c9 -85 56 -138 139 -138c56 0 102 26 126 77l119 -36c-40 -97 -137 -154 -239 -154c-167 0 -275 117 -275 279c0 174 106 291 269 291c175 0 264 -132 251 -319h-390zM309 450c-82 0 -123 -48 -136 -119h265
c-10 76 -44 119 -129 119z" />
    <glyph glyph-name="uni0451" unicode="&#x451;" horiz-adv-x="602" 
d="M260 733v-110h-110v110h110zM467 733v-110h-110v110h110zM170 236c9 -85 56 -138 139 -138c56 0 102 26 126 77l119 -36c-40 -97 -137 -154 -239 -154c-167 0 -275 117 -275 279c0 174 106 291 269 291c175 0 264 -132 251 -319h-390zM309 450c-82 0 -123 -48 -136 -119
h265c-10 76 -44 119 -129 119z" />
    <glyph glyph-name="uni0436" unicode="&#x436;" horiz-adv-x="787" 
d="M10 0l174 267l-62 118c-14 25 -27 33 -41 39c-14 5 -33 6 -50 3v113c26 13 71 14 111 -4c35 -17 55 -48 75 -88l68 -131h55v223h107v-223h56l69 131c20 40 41 68 73 84c36 19 85 17 114 8v-113c-13 3 -33 4 -51 -2c-17 -4 -31 -18 -43 -40l-62 -118l174 -267h-135
l-137 222h-58v-222h-107v222h-58l-137 -222h-135z" />
    <glyph glyph-name="uni0437" unicode="&#x437;" horiz-adv-x="520" 
d="M47 469c27 23 53 41 93 59c34 16 77 27 117 27c46 0 100 -9 141 -36c44 -30 65 -74 65 -123c0 -42 -13 -79 -43 -112c39 -26 60 -76 60 -120c0 -66 -26 -110 -79 -143c-42 -29 -98 -36 -144 -36c-54 0 -105 14 -143 36c-37 21 -75 59 -92 86l95 63c13 -15 35 -36 51 -47
c30 -18 64 -25 98 -25c22 0 40 4 57 14c23 14 34 36 34 60c0 28 -20 50 -53 56c-17 3 -51 3 -73 3h-38v95h38c20 0 45 1 62 6c36 6 47 28 47 50c0 20 -7 38 -28 50c-13 7 -30 11 -51 11c-33 0 -66 -10 -92 -22c-17 -8 -37 -21 -54 -35z" />
    <glyph glyph-name="uni0438" unicode="&#x438;" horiz-adv-x="609" 
d="M539 540v-540h-115v353l-257 -353h-97v540h115v-343l258 343h96z" />
    <glyph glyph-name="uni0439" unicode="&#x439;" horiz-adv-x="609" 
d="M377 752h94c0 -84 -68 -152 -151 -152c-84 0 -152 68 -152 152h94c0 -32 26 -58 58 -58s57 26 57 58zM539 540v-540h-115v353l-257 -353h-97v540h115v-343l258 343h96z" />
    <glyph glyph-name="uni045D" unicode="&#x45d;" horiz-adv-x="609" 
d="M449 605l31 88l-268 96l-31 -88zM539 540v-540h-115v353l-257 -353h-97v540h115v-343l258 343h96z" />
    <glyph glyph-name="uni043A" unicode="&#x43a;" horiz-adv-x="539" 
d="M70 0l1 540h122v-260l197 260h151l-210 -270l228 -270h-160l-206 260v-260h-123z" />
    <glyph glyph-name="uni045C" unicode="&#x45c;" horiz-adv-x="539" 
d="M150 605l268 96l-31 88l-268 -96zM70 0l1 540h122v-260l197 260h151l-210 -270l228 -270h-160l-206 260v-260h-123z" />
    <glyph glyph-name="uni043B" unicode="&#x43b;" horiz-adv-x="605" 
d="M137 540h398v-540h-120v427h-171c-11 -127 -19 -219 -33 -294c-21 -121 -74 -160 -191 -133v101c59 -11 72 14 83 78c17 89 27 223 34 361z" />
    <glyph glyph-name="uni043C" unicode="&#x43c;" horiz-adv-x="725" 
d="M556 540h99v-540h-115v298l-154 -298h-47l-154 298v-298h-115v540h99l194 -373z" />
    <glyph glyph-name="uni043D" unicode="&#x43d;" horiz-adv-x="623" 
d="M433 540h120v-540h-120v214h-243v-214h-120v540h120v-213h243v213z" />
    <glyph glyph-name="uni043E" unicode="&#x43e;" horiz-adv-x="618" 
d="M309 -15c-163 0 -269 118 -269 285c0 169 109 285 269 285c162 0 269 -118 269 -285c0 -168 -108 -285 -269 -285zM451 270c0 105 -48 172 -142 172c-97 0 -141 -70 -141 -172c0 -105 48 -172 141 -172c95 0 142 71 142 172z" />
    <glyph glyph-name="uni043F" unicode="&#x43f;" horiz-adv-x="609" 
d="M539 540v-540h-120v427h-229v-427h-120v540h469z" />
    <glyph glyph-name="uni0440" unicode="&#x440;" horiz-adv-x="617" 
d="M326 555c153 0 251 -121 251 -285c0 -162 -97 -285 -247 -285c-56 0 -102 15 -139 43v-268h-121v780h107v-38c38 34 88 53 149 53zM312 93c94 0 137 78 137 177c0 98 -44 177 -141 177c-92 0 -131 -72 -131 -177s38 -177 135 -177z" />
    <glyph glyph-name="uni0441" unicode="&#x441;" horiz-adv-x="576" 
d="M545 383l-120 -33c-18 58 -65 92 -120 92c-95 0 -137 -73 -137 -172c0 -103 46 -172 137 -172c64 0 98 30 117 85l123 -27c-33 -110 -120 -171 -240 -171c-167 0 -264 122 -265 285c1 166 102 285 266 285c123 0 213 -66 239 -172z" />
    <glyph glyph-name="uni0442" unicode="&#x442;" horiz-adv-x="532" 
d="M507 540v-107h-181v-433h-120v433h-181v107h482z" />
    <glyph glyph-name="uni0443" unicode="&#x443;" horiz-adv-x="559" 
d="M434 540h121l-301 -780l-113 1l88 239l1 4l-218 536h125l151 -385z" />
    <glyph glyph-name="uni045E" unicode="&#x45e;" horiz-adv-x="559" 
d="M291 600c-84 0 -152 68 -152 152h94c0 -32 26 -58 58 -58s57 26 57 58h94c0 -84 -67 -152 -151 -152zM434 540h121l-301 -780l-113 1l88 239l1 4l-218 536h125l151 -385z" />
    <glyph glyph-name="uni0444" unicode="&#x444;" horiz-adv-x="756" 
d="M432 550c160 21 284 -82 284 -280s-124 -301 -284 -280v-215h-107v215c-161 -21 -285 82 -285 280s124 301 285 280v162h107v-162zM163 270c0 -113 52 -187 162 -173v344c-115 15 -162 -58 -162 -171zM432 97c109 -14 162 57 162 173s-48 186 -162 171v-344z" />
    <glyph glyph-name="uni0445" unicode="&#x445;" horiz-adv-x="554" 
d="M539 540l-193 -267l198 -273h-142l-124 179l-126 -179h-142l198 273l-194 267h142l122 -173l119 173h142z" />
    <glyph glyph-name="uni0447" unicode="&#x447;" horiz-adv-x="596" 
d="M404 540h122v-540h-122v213c-45 -46 -103 -70 -171 -70c-95 0 -166 61 -185 155c-7 36 -8 76 -8 111v131h122v-131c0 -24 1 -55 7 -79c12 -53 43 -83 98 -83c57 0 112 29 137 65v228z" />
    <glyph glyph-name="uni0446" unicode="&#x446;" horiz-adv-x="653" 
d="M539 107h104v-195h-120v88h-453v540h120v-427h229v427h120v-433z" />
    <glyph glyph-name="uni0448" unicode="&#x448;" horiz-adv-x="791" 
d="M70 0v540h115v-433h153v433h115v-433h153v433h115v-540h-651z" />
    <glyph glyph-name="uni0449" unicode="&#x449;" horiz-adv-x="771" 
d="M721 107h40v-195h-120v88h-571v540h115v-433h153v433h115v-433h153v433h115v-433z" />
    <glyph glyph-name="uni045F" unicode="&#x45f;" horiz-adv-x="609" 
d="M419 540h120v-540h-167v-120h-120v120h-182v540h120v-427h229v427z" />
    <glyph glyph-name="uni044C" unicode="&#x44c;" horiz-adv-x="570" 
d="M70 540h121v-180h96c31 0 73 -1 99 -6c91 -19 144 -74 144 -175c0 -95 -52 -151 -141 -172c-26 -6 -70 -7 -100 -7h-219v540zM191 266v-171h109c14 0 33 0 50 5c30 8 57 38 57 79c0 44 -27 73 -60 82c-16 4 -34 5 -47 5h-109z" />
    <glyph glyph-name="uni044A" unicode="&#x44a;" horiz-adv-x="598" 
d="M414 354c91 -19 144 -74 144 -175c0 -95 -52 -151 -140 -172c-27 -6 -70 -7 -101 -7h-218l-1 446h-78v94h199v-180h97c30 0 72 -1 98 -6zM378 100c30 8 57 38 57 79c0 44 -27 73 -60 82c-16 4 -33 5 -47 5h-109v-171h109c14 0 33 0 50 5z" />
    <glyph glyph-name="uni044B" unicode="&#x44b;" horiz-adv-x="740" 
d="M70 540h121v-180h60c30 0 72 -1 98 -6c91 -19 144 -74 144 -175c0 -95 -52 -151 -140 -172c-27 -6 -70 -7 -101 -7h-182v540zM550 540v-540h120v540h-120zM191 266v-171h72c14 0 33 0 50 5c30 8 57 38 57 79c0 44 -27 73 -60 82c-16 4 -33 5 -47 5h-72z" />
    <glyph glyph-name="uni0459" unicode="&#x459;" horiz-adv-x="856" 
d="M672 354c91 -20 144 -74 144 -175c0 -95 -52 -151 -140 -172c-27 -6 -70 -7 -101 -7h-182v427h-149c-11 -127 -19 -219 -33 -294c-21 -121 -74 -160 -191 -133v101c59 -11 72 14 83 78c17 89 27 223 34 361h377v-180h60c30 0 72 0 98 -6zM636 100c30 8 57 38 57 79
c0 44 -27 73 -60 82c-16 4 -33 5 -47 5h-72v-171h72c14 0 33 0 50 5z" />
    <glyph glyph-name="uni045A" unicode="&#x45a;" horiz-adv-x="836" 
d="M652 354c91 -20 144 -74 144 -175c0 -95 -52 -151 -141 -172c-26 -6 -70 -7 -100 -7h-182v266h-183v-266h-120v540h120v-180h183v180h120v-180h61c30 0 72 0 98 -6zM616 100c30 8 57 38 57 79c0 44 -27 73 -60 82c-16 4 -34 5 -47 5h-73v-171h73c14 0 33 0 50 5z" />
    <glyph glyph-name="uni0455" unicode="&#x455;" horiz-adv-x="542" 
d="M497 396l-123 -22c-6 46 -47 75 -102 77c-53 2 -94 -19 -94 -52c0 -30 21 -44 60 -56c27 -8 55 -15 96 -26c110 -28 167 -69 167 -159c0 -111 -94 -173 -216 -173c-131 0 -224 52 -245 172l123 19c13 -58 63 -86 125 -86c50 0 90 21 90 62c0 35 -28 50 -72 62
c-47 13 -89 24 -128 36c-72 20 -120 67 -120 143c0 108 101 162 211 162c118 0 214 -55 228 -159z" />
    <glyph glyph-name="uni0454" unicode="&#x454;" horiz-adv-x="577" 
d="M305 98c64 0 99 30 118 85l122 -27c-33 -110 -119 -171 -240 -171c-167 0 -264 122 -264 285c0 166 102 285 266 285c122 0 213 -66 238 -172l-120 -33c-18 58 -65 92 -120 92c-78 0 -121 -50 -133 -124h180v-95h-180c12 -76 58 -125 133 -125z" />
    <glyph glyph-name="uni044D" unicode="&#x44d;" horiz-adv-x="577" 
d="M270 555c165 0 266 -119 267 -285c-1 -163 -98 -285 -265 -285c-120 0 -207 61 -240 171l122 27c19 -55 54 -85 118 -85c76 0 121 49 133 125h-180v95h180c-12 74 -55 124 -133 124c-55 0 -102 -34 -120 -92l-120 33c25 106 116 172 238 172z" />
    <glyph glyph-name="uni0456" unicode="&#x456;" 
d="M80 734h120v-110h-120v110zM80 540v-540h120v540h-120z" />
    <glyph glyph-name="uni0457" unicode="&#x457;" 
d="M-18 733h110v-110h-110v110zM189 733h110v-110h-110v110zM80 540v-540h120v540h-120z" />
    <glyph glyph-name="uni0458" unicode="&#x458;" horiz-adv-x="288" 
d="M96 718h121v-110h-121v110zM16 -127h-26v-113h66c38 0 87 1 125 40c37 38 36 79 36 135v605h-121v-575c0 -39 -4 -57 -19 -72c-16 -16 -37 -20 -61 -20z" />
    <glyph glyph-name="uni045B" unicode="&#x45b;" horiz-adv-x="626" 
d="M500 500c63 -57 66 -152 66 -239v-261h-122v256c0 63 -9 123 -43 155c-22 21 -52 32 -90 31c-28 -1 -52 -9 -71 -25c-22 -17 -36 -43 -43 -75c-5 -26 -6 -68 -6 -107v-235h-121v583h-55v94h55v43h107v-43h105v-94h-105v-103c3 4 7 9 11 13c36 41 90 59 138 61
c62 4 124 -6 174 -54z" />
    <glyph glyph-name="uni044E" unicode="&#x44e;" horiz-adv-x="852" 
d="M746 466c48 -57 66 -124 66 -196c0 -75 -20 -138 -66 -195c-50 -60 -123 -90 -204 -90c-128 0 -226 83 -248 225h-104v-210h-120v540h120v-210h104c22 144 122 225 248 225c80 0 155 -30 204 -89zM651 148c25 33 33 78 33 122c0 45 -8 90 -33 123c-24 33 -65 49 -109 49
c-97 0 -141 -70 -141 -172c0 -105 48 -172 141 -172c44 0 85 17 109 50z" />
    <glyph glyph-name="uni044F" unicode="&#x44f;" horiz-adv-x="584" 
d="M295 540h219v-540h-121v180h-97h-18l-111 -180h-127l122 196c-69 27 -108 81 -108 165c0 94 52 151 141 172c25 6 70 7 100 7zM393 274v172h-109c-14 0 -33 -1 -50 -6c-29 -9 -57 -39 -57 -79c0 -43 27 -72 60 -81c16 -5 34 -6 47 -6h109z" />
    <glyph glyph-name="uni0452" unicode="&#x452;" horiz-adv-x="626" 
d="M500 500c63 -57 66 -152 66 -239v-350c0 -76 -37 -124 -97 -136c-45 -9 -81 -3 -115 5v86c37 -3 90 -10 90 70v320c0 63 -9 123 -43 155c-22 21 -52 32 -90 31c-28 -1 -52 -9 -71 -25c-22 -17 -36 -43 -43 -75c-5 -26 -6 -68 -6 -107v-235h-121v583h-55v94h55v43h107v-43
h105v-94h-105v-103c3 4 7 9 11 13c36 41 90 59 138 61c62 4 124 -6 174 -54z" />
    <glyph glyph-name="uni04AF" unicode="&#x4af;" horiz-adv-x="553" 
d="M412 540h121l-196 -540v-180h-121v180l-196 540h121l136 -391z" />
    <glyph glyph-name="uni04BB" unicode="&#x4bb;" horiz-adv-x="596" 
d="M548 242c7 -36 8 -76 8 -111v-131h-122v131c0 24 -1 55 -6 79c-12 54 -44 83 -98 83c-58 0 -113 -30 -138 -65v-228h-121v540h121v-213c45 46 103 70 171 70c95 0 166 -61 185 -155z" />
    <glyph glyph-name="uni04E9" unicode="&#x4e9;" horiz-adv-x="618" 
d="M309 555c162 0 269 -118 269 -285c0 -168 -108 -285 -269 -285c-163 0 -269 118 -269 285c0 169 109 285 269 285zM309 442c-81 0 -125 -49 -137 -124h275c-13 77 -59 124 -138 124zM309 98c79 0 125 50 138 125h-275c12 -78 59 -125 137 -125z" />
    <glyph glyph-name="uni0432.loclBGR" horiz-adv-x="613" 
d="M293 735c125 0 224 -85 224 -203c0 -55 -20 -103 -61 -134c68 -25 119 -95 119 -186c0 -144 -102 -227 -257 -227c-118 0 -207 43 -238 150c-9 30 -10 60 -10 95v300c0 27 3 49 9 70c31 95 118 135 214 135zM293 622c-37 0 -71 -13 -89 -49c-8 -18 -12 -46 -12 -75v-276
c0 -25 2 -47 7 -61c20 -46 69 -64 121 -64c80 0 134 46 134 117c0 79 -65 115 -161 115v105c63 5 102 38 102 96s-47 92 -102 92z" />
    <glyph glyph-name="uni0433.loclBGR" horiz-adv-x="542" 
d="M45 396c14 104 110 159 228 159c110 0 211 -54 211 -162c0 -76 -48 -123 -120 -143c-38 -12 -81 -23 -128 -36c-44 -12 -72 -27 -72 -62c0 -41 40 -62 90 -62c62 0 112 28 125 86l123 -19c-21 -120 -113 -172 -245 -172c-122 0 -216 62 -216 173c0 90 57 131 167 159
c42 11 69 18 96 26c39 12 61 26 61 56c0 33 -42 54 -95 52c-55 -2 -95 -31 -102 -77z" />
    <glyph glyph-name="uni0434.loclBGR" horiz-adv-x="616" 
d="M440 540h106v-566c0 -28 -2 -52 -7 -76c-25 -105 -120 -152 -242 -152c-90 0 -172 43 -215 116l112 55c20 -39 61 -57 104 -57c75 0 129 39 128 116v52c-37 -28 -83 -43 -139 -43c-150 0 -247 123 -247 285c0 164 98 285 251 285c61 0 111 -19 149 -53v38zM305 93
c97 0 135 72 135 177s-39 177 -131 177c-97 0 -141 -79 -141 -177c0 -99 43 -177 137 -177z" />
    <glyph glyph-name="uni0436.loclBGR" horiz-adv-x="787" 
d="M603 267l174 -267h-135l-137 222h-58v-222h-107v222h-58l-137 -222h-135l174 267l-62 118c-14 25 -27 33 -41 39c-14 5 -33 6 -50 3v113c26 13 71 14 111 -4c35 -17 55 -48 75 -88l68 -131h55v403h107v-403h56l69 131c20 40 41 68 73 84c36 19 85 17 114 8v-113
c-13 3 -33 4 -51 -2c-17 -4 -31 -18 -43 -40z" />
    <glyph glyph-name="uni0437.loclBGR" horiz-adv-x="660" 
d="M67 446c27 27 66 54 103 73c50 24 107 36 162 36c65 0 137 -15 188 -53c52 -37 81 -96 81 -159c0 -27 -10 -65 -25 -88c-9 -21 -25 -42 -43 -60c22 -14 40 -30 55 -53c23 -30 32 -66 32 -114c0 -67 -39 -134 -94 -173c-57 -40 -129 -50 -191 -50c-60 0 -126 10 -177 38
c-50 28 -89 65 -118 116l90 69c19 -32 48 -60 81 -80c39 -22 82 -30 123 -30c38 0 75 5 106 24c34 21 53 50 52 87c0 31 -9 54 -33 73c-27 22 -65 28 -106 31c-36 2 -73 2 -109 2v114c36 0 73 0 109 2c37 2 66 6 89 24c22 17 31 43 30 67c0 29 -11 51 -34 70
c-29 23 -73 30 -108 30c-43 0 -75 -10 -112 -28c-31 -16 -56 -35 -76 -55z" />
    <glyph glyph-name="uni0438.loclBGR" horiz-adv-x="626" 
d="M434 540h122v-540h-107v61c-4 -4 -8 -9 -12 -14c-35 -41 -89 -59 -138 -61c-61 -4 -123 6 -174 54c-63 57 -65 152 -65 239v261h122v-256c0 -63 8 -123 43 -155c21 -21 52 -32 90 -31c27 1 51 10 71 25c21 17 36 43 42 75c6 26 6 68 6 106v1v235z" />
    <glyph glyph-name="uni0439.loclBGR" horiz-adv-x="626" 
d="M308 600c-84 0 -152 68 -152 152h94c0 -32 26 -58 58 -58s57 26 57 58h94c0 -84 -67 -152 -151 -152zM434 540h122v-540h-107v61c-4 -4 -8 -9 -12 -14c-35 -41 -89 -59 -138 -61c-61 -4 -123 6 -174 54c-63 57 -65 152 -65 239v261h122v-256c0 -63 8 -123 43 -155
c21 -21 52 -32 90 -31c27 1 51 10 71 25c21 17 36 43 42 75c6 26 6 68 6 106v1v235z" />
    <glyph glyph-name="uni045D.loclBGR" horiz-adv-x="622" 
d="M474 693l-32 -88l-267 96l30 88zM434 540h122v-540h-107v61c-4 -4 -8 -9 -12 -14c-35 -41 -89 -59 -138 -61c-61 -4 -123 6 -174 54c-63 57 -65 152 -65 239v261h122v-256c0 -63 8 -123 43 -155c21 -21 52 -32 90 -31c27 1 51 10 71 25c21 17 36 43 42 75
c6 26 6 68 6 106v1v235z" />
    <glyph glyph-name="uni043A.loclBGR" horiz-adv-x="539" 
d="M70 0l1 720h122v-440l197 260h151l-210 -270l228 -270h-160l-206 260v-260h-123z" />
    <glyph glyph-name="uni043B.loclBGR" horiz-adv-x="553" 
d="M412 0l-135 392l-136 -392h-121l196 540h121l196 -540h-121z" />
    <glyph glyph-name="uni043D.loclBGR" horiz-adv-x="623" 
d="M433 540h120v-540h-120v214h-243v-214h-120v540h120v-213h243v213z" />
    <glyph glyph-name="uni043F.loclBGR" horiz-adv-x="626" 
d="M501 500c63 -57 65 -152 65 -239v-261h-122v256c0 63 -8 123 -43 155c-21 21 -52 32 -90 31c-27 -1 -51 -9 -71 -25c-21 -17 -36 -43 -42 -75c-6 -26 -6 -67 -6 -106v-1v-235h-121v540h106v-61c4 4 8 9 12 14c35 41 89 59 138 61c61 4 124 -6 174 -54z" />
    <glyph glyph-name="uni0442.loclBGR" horiz-adv-x="903" 
d="M788 506c50 -49 55 -105 55 -176l-1 -330h-121v322c0 44 -6 71 -31 95c-18 19 -44 29 -71 29c-29 0 -58 -12 -76 -34c-22 -25 -26 -51 -26 -80v-2v-330h-122v322c0 44 -6 71 -30 95c-18 19 -45 29 -72 29c-29 0 -57 -12 -76 -34c-22 -25 -26 -51 -26 -80v-332h-121v540
h107v-57c37 44 95 70 154 70c44 0 98 -13 132 -47c12 -12 22 -25 29 -38c37 54 99 85 165 85c44 0 98 -13 131 -47z" />
    <glyph glyph-name="uni0447.loclBGR" horiz-adv-x="596" 
d="M404 540h122v-540h-122v213c-45 -46 -103 -70 -171 -70c-95 0 -166 61 -185 155c-7 36 -8 76 -8 111v131h122v-131c0 -24 1 -55 7 -79c12 -53 43 -83 98 -83c57 0 112 29 137 65v228z" />
    <glyph glyph-name="uni0446.loclBGR" horiz-adv-x="649" 
d="M556 107h83v-195h-78v88h-112v61c-4 -4 -8 -9 -12 -14c-35 -41 -89 -59 -138 -61c-61 -4 -123 6 -174 54c-63 57 -65 152 -65 239v261h122v-256c0 -63 8 -123 43 -155c21 -21 52 -32 90 -31c27 1 51 10 71 25c21 17 36 43 42 75c6 26 6 68 6 106v1v235h122v-433z" />
    <glyph glyph-name="uni0448.loclBGR" horiz-adv-x="903" 
d="M712 540h121v-540h-106v59c-37 -46 -95 -72 -155 -72c-44 0 -98 13 -131 47c-13 12 -22 25 -30 38c-35 -53 -98 -85 -165 -85c-43 0 -97 13 -131 47c-50 49 -54 105 -54 176v330h121v-322c0 -44 6 -71 31 -95c18 -19 44 -29 71 -29c29 0 58 12 76 34c22 25 26 51 26 80v2
v330h122v-322c0 -44 6 -71 30 -95c18 -19 45 -29 72 -29c29 0 57 12 76 34c22 25 26 51 26 80v332z" />
    <glyph glyph-name="uni0449.loclBGR" horiz-adv-x="926" 
d="M833 107h83v-195h-78v88h-112v58c-37 -45 -94 -71 -154 -71c-44 0 -98 13 -132 47c-12 12 -22 25 -29 38c-37 -54 -100 -85 -165 -85c-44 0 -98 13 -132 47c-50 49 -54 105 -54 176v330h122v-322c0 -44 6 -71 30 -95c18 -19 45 -29 72 -29c29 0 57 12 76 34
c22 25 26 51 26 80v2v330h122l-1 -322c0 -44 6 -71 31 -95c18 -19 45 -29 71 -29c29 0 58 12 77 34c21 25 25 51 25 80v332h122v-433z" />
    <glyph glyph-name="uni044C.loclBGR" horiz-adv-x="570" 
d="M70 540h121v-180h96c31 0 73 -1 99 -6c91 -19 144 -74 144 -175c0 -95 -52 -151 -141 -172c-26 -6 -70 -7 -100 -7h-219v540zM191 266v-171h109c14 0 33 0 50 5c30 8 57 38 57 79c0 44 -27 73 -60 82c-16 4 -34 5 -47 5h-109z" />
    <glyph glyph-name="uni044E.loclBGR" horiz-adv-x="848" 
d="M746 466c48 -57 66 -124 66 -196c0 -75 -20 -138 -66 -195c-50 -60 -123 -90 -204 -90c-128 0 -226 83 -248 225h-104v-210h-120v720h120v-390h104c22 144 122 225 248 225c80 0 155 -30 204 -89zM651 148c25 33 33 78 33 122c0 45 -8 90 -33 123c-24 33 -65 49 -109 49
c-97 0 -141 -70 -141 -172c0 -105 48 -172 141 -172c44 0 85 17 109 50z" />
    <glyph glyph-name="uni0431.loclSRB" horiz-adv-x="598" 
d="M313 506c71 0 140 -27 184 -82c41 -49 61 -117 61 -181c2 -71 -24 -137 -70 -186c-51 -51 -121 -74 -193 -72c-71 0 -141 29 -188 83c-46 53 -62 115 -65 183c-4 74 -2 140 8 210c12 80 46 156 114 204c65 45 148 55 230 55c45 0 85 -5 120 -11v-111c-40 5 -85 9 -120 10
c-61 1 -126 -2 -165 -31c-44 -30 -56 -82 -62 -132c39 38 92 60 146 61zM300 399c-39 0 -76 -14 -99 -42c-24 -27 -32 -66 -32 -105c0 -41 8 -80 32 -107c23 -28 60 -41 99 -41s76 13 99 41c24 27 32 66 32 106c0 39 -8 79 -32 106c-23 28 -60 42 -99 42z" />
    <glyph glyph-name="alpha" unicode="&#x3b1;" horiz-adv-x="643" 
d="M578 204c0 -41 3 -91 55 -89v-115c-79 -24 -126 -1 -151 44c-45 -38 -104 -59 -173 -59c-163 0 -269 118 -269 285c0 169 109 285 269 285c64 0 119 -18 163 -51v36h106v-336zM309 98c95 0 142 71 142 172c0 105 -48 172 -142 172c-97 0 -141 -70 -141 -172
c0 -105 48 -172 141 -172z" />
    <glyph glyph-name="beta" unicode="&#x3b2;" horiz-adv-x="613" 
d="M456 398c68 -25 119 -95 119 -186c0 -144 -102 -227 -257 -227c-48 0 -91 7 -127 22v-247h-121v780c1 23 4 42 9 60c31 95 118 135 214 135c125 0 224 -85 224 -203c0 -55 -20 -103 -61 -134zM320 97c80 0 134 46 134 117c0 79 -65 115 -161 115v105c63 5 102 38 102 96
s-47 92 -102 92c-37 0 -71 -13 -89 -49c-8 -18 -12 -46 -12 -75v-276c0 -25 2 -47 7 -61c20 -46 69 -64 121 -64z" />
    <glyph glyph-name="uni03BC" unicode="&#x3bc;" horiz-adv-x="630" 
d="M566 212c0 -58 2 -99 54 -97v-115c-61 -27 -101 -7 -125 36c-49 -45 -109 -54 -169 -50c-48 2 -102 20 -138 61c-4 4 -8 9 -11 13v-240h-107v720h121v-235c0 -38 1 -81 6 -107c7 -32 21 -58 43 -75c19 -15 43 -24 71 -25c38 -1 68 10 90 31c34 32 43 92 43 155v256h122
v-328z" />
    <glyph glyph-name="zero" unicode="0" horiz-adv-x="658" 
d="M329 -14c78 0 149 28 198 84c50 58 61 116 61 191v199c0 79 -11 134 -61 192c-50 57 -124 85 -198 83c-78 2 -152 -30 -198 -83c-50 -62 -61 -115 -61 -192v-199c0 -78 12 -131 61 -191c49 -57 124 -84 198 -84zM329 621c48 1 95 -26 118 -67c18 -33 18 -57 18 -94v-199
c0 -42 -1 -69 -21 -98c-24 -39 -68 -64 -115 -63c-46 -1 -89 24 -114 62c-21 30 -22 64 -22 99v199c0 38 3 68 19 95c24 40 70 67 117 66z" />
    <glyph glyph-name="one" unicode="1" horiz-adv-x="438" 
d="M195 720h123v-720h-123v589l-135 -83v133z" />
    <glyph glyph-name="two" unicode="2" horiz-adv-x="598" 
d="M54 497c0 71 23 132 81 182c46 40 107 56 171 56c68 0 135 -26 182 -77c41 -43 60 -104 60 -163c0 -103 -42 -145 -124 -217l-185 -163h309v-114h-495v105l308 275c47 42 63 79 63 115c0 31 -10 63 -31 86c-23 27 -53 39 -90 39c-34 0 -63 -11 -85 -31
c-25 -23 -41 -58 -41 -93h-123z" />
    <glyph glyph-name="three" unicode="3" horiz-adv-x="582" 
d="M476 373c31 -42 47 -95 46 -148c-3 -67 -30 -133 -79 -177c-46 -41 -107 -60 -167 -61c-60 -2 -121 21 -167 62c-33 28 -57 67 -69 109l117 32c6 -22 17 -42 34 -57c23 -21 53 -33 85 -33c31 1 62 12 84 33c26 24 39 58 39 92c0 35 -12 69 -37 93c-24 23 -54 33 -87 33
c-21 0 -43 -7 -62 -17l-55 95l207 177h-297v114h442v-114l-163 -156c54 -11 97 -39 129 -77z" />
    <glyph glyph-name="four" unicode="4" horiz-adv-x="609" 
d="M491 232h68v-113h-68v-119h-122v119h-319v113l231 488h137l-230 -488h181v187h122v-187z" />
    <glyph glyph-name="five" unicode="5" horiz-adv-x="586" 
d="M97 720h391v-113h-285l-10 -178c34 22 75 33 112 33c56 0 113 -21 157 -58c52 -47 75 -110 74 -177c-1 -65 -29 -129 -75 -173s-109 -66 -173 -67c-62 -2 -126 23 -171 66c-32 29 -55 68 -67 110l116 31c6 -22 18 -43 34 -58c24 -22 55 -35 88 -35c34 0 66 13 90 36
c23 23 37 56 37 90s-14 67 -39 91c-23 22 -55 34 -88 35c-55 1 -91 -25 -110 -47l-103 33z" />
    <glyph glyph-name="six" unicode="6" horiz-adv-x="622" 
d="M523 658l-87 -85c-26 30 -64 48 -103 48c-52 0 -101 -30 -122 -75c-15 -27 -18 -55 -18 -89v-50c39 35 90 56 144 56c57 0 115 -22 159 -60c50 -48 73 -106 72 -176c0 -65 -29 -129 -75 -173c-45 -44 -110 -69 -174 -67c-63 -2 -128 23 -174 69c-61 59 -75 124 -75 208
v193c0 78 14 137 63 194c52 60 125 82 200 83c73 1 139 -24 190 -76zM319 100c35 0 68 15 91 39c23 22 36 54 36 88s-13 67 -37 90s-56 37 -89 37c-34 0 -67 -14 -91 -38c-23 -23 -36 -55 -36 -89c0 -33 13 -66 36 -88c24 -24 56 -38 90 -39z" />
    <glyph glyph-name="seven" unicode="7" horiz-adv-x="534" 
d="M107 0l247 606h-314v114h444v-114l-247 -606h-130z" />
    <glyph glyph-name="eight" unicode="8" horiz-adv-x="612" 
d="M79 531c2 66 25 121 76 159c43 33 98 45 151 45c55 0 110 -13 151 -45c50 -37 76 -97 76 -159c0 -30 -7 -64 -25 -94c-10 -19 -23 -35 -37 -50c24 -20 43 -45 56 -72c18 -33 26 -69 25 -102c-1 -68 -25 -130 -77 -172c-47 -40 -110 -56 -169 -56c-61 0 -125 18 -169 56
c-50 42 -77 107 -77 172c0 33 7 69 25 102c13 27 33 52 57 72c-15 15 -29 31 -38 50c-18 30 -26 64 -25 94zM306 622c-27 -1 -54 -8 -73 -24s-27 -40 -27 -67c0 -26 8 -51 27 -66c19 -16 46 -23 73 -23c28 0 55 7 73 23c18 15 26 40 26 66c1 27 -8 51 -26 67s-45 25 -73 24z
M306 327c-33 0 -65 -9 -87 -30c-23 -21 -32 -52 -32 -84s9 -63 32 -84c22 -20 54 -30 87 -30s66 10 87 30c22 21 32 52 32 84s-10 63 -32 84c-21 21 -54 30 -87 30z" />
    <glyph glyph-name="nine" unicode="9" horiz-adv-x="622" 
d="M99 62l87 84c26 -30 64 -48 103 -48c52 0 101 30 122 75c15 27 18 55 18 89v50c-39 -35 -90 -55 -144 -55c-57 0 -115 21 -159 60c-50 47 -73 105 -72 175c1 65 29 129 75 173c45 44 110 69 174 67c63 2 128 -23 174 -69c61 -59 75 -124 75 -208v-193
c0 -78 -14 -137 -63 -194c-52 -60 -124 -82 -200 -83c-72 -1 -139 24 -190 77zM303 619c-35 1 -68 -14 -91 -39c-23 -22 -36 -54 -36 -88s14 -66 37 -90c24 -23 56 -37 89 -37c35 0 67 14 91 38c23 23 36 56 36 89s-13 66 -36 89c-23 24 -56 37 -90 38z" />
    <glyph glyph-name="zero.tf" horiz-adv-x="620" 
d="M310 -14c74 0 149 27 199 84c48 60 60 113 60 191v199c0 77 -11 130 -61 192c-46 53 -120 85 -198 83c-73 2 -148 -26 -198 -83c-49 -58 -61 -113 -61 -192v-199c0 -75 11 -133 61 -191c49 -56 120 -84 198 -84zM310 621c47 1 93 -26 117 -66c16 -27 19 -57 19 -95v-199
c0 -35 -1 -69 -21 -99c-26 -38 -69 -63 -115 -62c-47 -1 -91 24 -115 63c-20 29 -21 56 -21 98v199c0 37 0 61 18 94c24 41 70 68 118 67z" />
    <glyph glyph-name="one.tf" horiz-adv-x="620" 
d="M289 720h123v-720h-123v589l-135 -83v133z" />
    <glyph glyph-name="two.tf" horiz-adv-x="620" 
d="M65 497c0 71 23 132 81 182c47 40 107 56 171 56c68 0 135 -26 182 -77c41 -43 60 -104 60 -163c0 -103 -42 -145 -124 -217l-185 -163h309v-114h-495v105l308 275c48 42 64 79 64 115c0 31 -10 63 -32 86c-23 27 -53 39 -89 39c-35 0 -64 -11 -86 -31
c-25 -23 -41 -58 -40 -93h-124z" />
    <glyph glyph-name="three.tf" horiz-adv-x="620" 
d="M495 373c32 -42 48 -95 46 -148c-2 -67 -29 -133 -78 -177c-46 -41 -107 -60 -167 -61c-61 -2 -122 21 -168 62c-32 28 -56 67 -68 109l116 32c7 -22 18 -42 35 -57c22 -21 53 -33 84 -33c32 1 63 12 85 33c26 24 39 58 39 92c0 35 -12 69 -38 93c-23 23 -54 33 -86 33
c-21 0 -43 -7 -62 -17l-55 95l207 177h-297v114h441v-114l-162 -156c53 -11 96 -39 128 -77z" />
    <glyph glyph-name="four.tf" horiz-adv-x="620" 
d="M504 232h67v-113h-67v-119h-122v119h-319v113l230 488h138l-231 -488h182v187h122v-187z" />
    <glyph glyph-name="five.tf" horiz-adv-x="620" 
d="M114 720h391v-113h-284l-11 -178c34 22 75 33 112 33c56 0 114 -21 157 -58c53 -47 75 -110 75 -177c-1 -65 -30 -129 -75 -173c-47 -44 -110 -66 -174 -67c-62 -2 -126 23 -171 66c-31 29 -55 68 -67 110l116 31c6 -22 18 -43 35 -58c23 -22 55 -35 87 -35
c34 0 66 13 90 36c23 23 37 56 37 90s-14 67 -39 91c-23 22 -54 34 -88 35c-55 1 -91 -25 -110 -47l-103 33z" />
    <glyph glyph-name="six.tf" horiz-adv-x="620" 
d="M514 658l-87 -85c-26 30 -64 48 -104 48c-51 0 -100 -30 -121 -75c-15 -27 -18 -55 -18 -89v-50c39 35 90 56 144 56c56 0 115 -22 159 -60c50 -48 73 -106 72 -176c-1 -65 -29 -129 -75 -173c-45 -44 -110 -69 -174 -67c-63 -2 -128 23 -174 69c-61 59 -75 124 -75 208
v193c0 78 14 137 63 194c52 60 124 82 199 83c73 1 140 -24 191 -76zM310 100c35 0 68 15 91 39c23 22 36 54 36 88s-14 67 -37 90c-24 23 -56 37 -89 37c-35 0 -67 -14 -91 -38c-23 -23 -36 -55 -36 -89c0 -33 13 -66 36 -88c23 -24 56 -38 90 -39z" />
    <glyph glyph-name="seven.tf" horiz-adv-x="620" 
d="M157 0l247 606h-314v114h443v-114l-246 -606h-130z" />
    <glyph glyph-name="eight.tf" horiz-adv-x="620" 
d="M82 531c3 66 26 121 77 159c42 33 98 45 150 45c56 0 111 -13 152 -45c49 -37 75 -97 75 -159c0 -30 -6 -64 -25 -94c-9 -19 -22 -35 -37 -50c24 -20 44 -45 56 -72c19 -33 27 -69 26 -102c-2 -68 -26 -130 -77 -172c-47 -40 -111 -56 -170 -56c-60 0 -124 18 -168 56
c-50 42 -77 107 -77 172c-1 33 7 69 25 102c13 27 32 52 56 72c-15 15 -28 31 -38 50c-17 30 -26 64 -25 94zM309 622c-27 -1 -54 -8 -72 -24c-19 -16 -27 -40 -27 -67c-1 -26 8 -51 27 -66c18 -16 45 -23 72 -23c28 0 55 7 74 23c18 15 25 40 26 66c1 27 -8 51 -27 67
c-18 16 -45 25 -73 24zM309 327c-33 0 -65 -9 -87 -30s-31 -52 -31 -84s9 -63 31 -84c22 -20 54 -30 87 -30s66 10 87 30c23 21 32 52 32 84s-9 63 -32 84c-21 21 -54 30 -87 30z" />
    <glyph glyph-name="nine.tf" horiz-adv-x="620" 
d="M106 63l87 84c26 -30 64 -48 104 -48c51 0 101 30 121 75c16 27 18 55 18 89v50c-39 -35 -90 -55 -143 -55c-57 0 -116 21 -160 60c-50 47 -73 105 -72 175c1 65 29 129 75 173s110 69 174 67c64 2 128 -23 174 -69c61 -59 75 -124 75 -208v-193c0 -78 -14 -137 -63 -194
c-52 -60 -124 -82 -199 -83c-73 -1 -140 24 -191 77zM310 620c-35 1 -67 -14 -91 -39c-23 -22 -36 -54 -36 -88s14 -66 37 -90c24 -23 56 -37 89 -37c35 0 67 14 91 38c23 23 36 56 36 89s-13 66 -36 89c-23 24 -56 37 -90 38z" />
    <glyph glyph-name="fraction" unicode="&#x2044;" horiz-adv-x="720" 
d="M80 0l-80 80l640 640l80 -81z" />
    <glyph glyph-name="period" unicode="." horiz-adv-x="303" 
d="M90 123h123v-123h-123v123z" />
    <glyph glyph-name="comma" unicode="," horiz-adv-x="303" 
d="M183 -5c0 -87 -40 -136 -123 -122l7 51c46 -3 63 31 57 76h-64v128h123v-133z" />
    <glyph glyph-name="colon" unicode=":" horiz-adv-x="343" 
d="M111 475h123v-123h-123v123zM110 188h123v-123h-123v123z" />
    <glyph glyph-name="semicolon" unicode=";" horiz-adv-x="343" 
d="M110 540h123v-123h-123v123zM233 -5c0 -87 -40 -136 -123 -122l7 51c46 -3 63 31 57 76h-64v128h123v-133z" />
    <glyph glyph-name="ellipsis" unicode="&#x2026;" horiz-adv-x="710" 
d="M80 123h123v-123h-123v123zM293 123h124v-123h-124v123zM507 123h123v-123h-123v123z" />
    <glyph glyph-name="exclam" unicode="!" horiz-adv-x="360" 
d="M120 720v-540h120v540h-120zM120 111h120v-111h-120v111z" />
    <glyph glyph-name="exclamdown" unicode="&#xa1;" horiz-adv-x="360" 
d="M120 429v111h120v-111h-120zM120 -180h120v540h-120v-540z" />
    <glyph glyph-name="question" unicode="?" horiz-adv-x="553" 
d="M503 534c0 -69 -33 -125 -78 -172c-32 -34 -61 -54 -78 -82c-19 -31 -19 -46 -19 -85h-127c0 46 8 90 29 127c26 53 62 63 112 116c27 30 34 58 34 93c0 22 -5 41 -16 56c-19 24 -50 34 -83 34c-28 0 -55 -7 -72 -22c-20 -16 -29 -40 -28 -68h-127c7 66 37 127 86 161
c38 28 88 42 136 42c73 0 142 -21 185 -73c30 -34 46 -81 46 -127zM201 0v133h127v-133h-127z" />
    <glyph glyph-name="questiondown" unicode="&#xbf;" horiz-adv-x="553" 
d="M352 540v-132h-127v132h127zM50 6c0 69 33 125 79 172c31 34 61 55 77 82c19 31 19 46 19 85h128c0 -46 -8 -90 -29 -127c-27 -52 -62 -63 -113 -116c-26 -30 -33 -58 -33 -93c0 -22 4 -41 16 -56c18 -24 50 -34 83 -34c27 0 54 7 71 22c20 16 29 40 28 68h127
c-6 -66 -37 -127 -86 -161c-38 -28 -88 -42 -136 -42c-73 0 -142 21 -185 73c-29 34 -46 81 -46 127z" />
    <glyph glyph-name="periodcentered" unicode="&#xb7;" horiz-adv-x="627" 
d="M315 242c-42 0 -75 31 -75 73s33 73 75 73c39 0 72 -31 72 -73s-33 -73 -72 -73z" />
    <glyph glyph-name="bullet" unicode="&#x2022;" horiz-adv-x="703" 
d="M355 173c-81 0 -145 62 -145 142c0 81 64 142 145 142c75 0 138 -61 138 -142c0 -80 -63 -142 -138 -142z" />
    <glyph glyph-name="asterisk" unicode="*" horiz-adv-x="465" 
d="M405 545l-114 -30l75 -89l-86 -62l-63 97l-62 -97l-87 62l75 89l-113 30l33 102l108 -45l-7 118h107l-8 -118l109 45z" />
    <glyph glyph-name="numbersign" unicode="#" horiz-adv-x="931" 
d="M841 427h-181l-32 -117h181l-30 -114h-181l-52 -195h-117l52 195h-123l-52 -195h-117l52 195h-181l30 114h182l31 117h-182l31 113h181l49 180h117l-49 -180h123l49 180h117l-49 -180h181zM511 310l32 117h-123l-31 -117h122z" />
    <glyph glyph-name="slash" unicode="/" horiz-adv-x="433" 
d="M252 720h121l-192 -720h-121z" />
    <glyph glyph-name="backslash" unicode="\" horiz-adv-x="433" 
d="M181 720l192 -720h-121l-192 720h121z" />
    <glyph glyph-name="colon.case" horiz-adv-x="343" 
d="M111 595h123v-123h-123v123zM110 248h123v-123h-123v123z" />
    <glyph glyph-name="exclamdown.case" horiz-adv-x="360" 
d="M120 609v111h120v-111h-120zM120 0h120v540h-120v-540z" />
    <glyph glyph-name="questiondown.case" horiz-adv-x="553" 
d="M352 720v-132h-127v132h127zM50 186c0 69 33 125 79 172c31 34 61 55 77 82c19 31 19 46 19 85h128c0 -46 -8 -90 -29 -127c-27 -52 -62 -63 -113 -116c-26 -30 -33 -58 -33 -93c0 -21 4 -41 16 -56c18 -24 50 -33 83 -33c27 0 54 6 71 21c20 16 29 40 28 68h127
c-6 -66 -37 -127 -86 -161c-38 -28 -88 -42 -136 -42c-73 0 -142 21 -185 73c-29 34 -46 81 -46 127z" />
    <glyph glyph-name="periodcentered.case" horiz-adv-x="627" 
d="M315 287c-42 0 -75 31 -75 73s33 73 75 73c39 0 72 -31 72 -73s-33 -73 -72 -73z" />
    <glyph glyph-name="parenleft" unicode="(" horiz-adv-x="453" 
d="M412 784l-89 66c-116 -135 -186 -333 -183 -520c-3 -186 67 -385 183 -520l89 66c-120 144 -162 294 -163 454c1 161 43 310 163 454z" />
    <glyph glyph-name="parenright" unicode=")" horiz-adv-x="453" 
d="M41 784c121 -144 162 -293 163 -454c-1 -160 -43 -310 -163 -454l89 -66c117 135 186 334 183 520c3 187 -66 385 -183 520z" />
    <glyph glyph-name="braceleft" unicode="{" horiz-adv-x="449" 
d="M408 -212v113h-59c-20 0 -35 15 -35 35v292c0 31 -9 60 -27 85l-22 30l22 29c18 25 27 54 27 85v292c0 19 15 34 35 34h59v114h-68c-86 0 -140 -54 -140 -140v-300c0 -7 -2 -14 -6 -20l-44 -62c-13 -20 -13 -45 0 -64l44 -63c4 -5 6 -12 6 -20v-300
c0 -86 54 -140 140 -140h68z" />
    <glyph glyph-name="braceright" unicode="}" horiz-adv-x="449" 
d="M41 -212h68c86 0 140 54 140 140v300c0 8 2 15 6 20l44 63c14 19 14 44 0 64l-44 62c-4 6 -6 13 -6 20v300c0 86 -54 140 -140 140h-68v-114h60c19 0 34 -15 34 -34v-292c0 -31 10 -60 28 -85l21 -29l-21 -30c-18 -25 -28 -54 -28 -85v-292c0 -20 -15 -35 -34 -35h-60
v-113z" />
    <glyph glyph-name="bracketleft" unicode="[" horiz-adv-x="424" 
d="M359 790h-112v-895h112v-107h-219v1109h219v-107z" />
    <glyph glyph-name="bracketright" unicode="]" horiz-adv-x="424" 
d="M284 897v-1109h-218v107h111v895h-111v107h218z" />
    <glyph glyph-name="parenleft.case" horiz-adv-x="453" 
d="M412 814l-89 66c-116 -135 -186 -333 -183 -520c-3 -186 67 -385 183 -520l89 66c-120 144 -162 294 -163 454c1 161 43 310 163 454z" />
    <glyph glyph-name="parenright.case" horiz-adv-x="453" 
d="M41 814c121 -144 162 -293 163 -454c-1 -160 -43 -310 -163 -454l89 -66c117 135 186 334 183 520c3 187 -66 385 -183 520z" />
    <glyph glyph-name="braceleft.case" horiz-adv-x="449" 
d="M408 -195v113h-59c-20 0 -35 16 -35 36v292c0 30 -9 59 -27 85l-22 29l22 29c18 26 27 55 27 85v292c0 19 15 35 35 35h59v114h-68c-86 0 -140 -55 -140 -140v-301c0 -7 -2 -13 -6 -19l-44 -63c-13 -19 -13 -44 0 -64l44 -63c4 -5 6 -12 6 -19v-301
c0 -86 54 -140 140 -140h68z" />
    <glyph glyph-name="braceright.case" horiz-adv-x="449" 
d="M41 -195h68c86 0 140 54 140 140v301c0 7 2 14 6 19l44 63c14 20 14 45 0 64l-44 63c-4 6 -6 12 -6 19v301c0 85 -54 140 -140 140h-68v-114h60c19 0 34 -16 34 -35v-292c0 -30 10 -59 28 -85l21 -29l-21 -29c-18 -26 -28 -55 -28 -85v-292c0 -20 -15 -36 -34 -36h-60
v-113z" />
    <glyph glyph-name="bracketleft.case" horiz-adv-x="424" 
d="M359 808h-112v-896h112v-107h-219v1110h219v-107z" />
    <glyph glyph-name="bracketright.case" horiz-adv-x="424" 
d="M284 915v-1110h-218v107h111v896h-111v107h218z" />
    <glyph glyph-name="hyphen" unicode="-" horiz-adv-x="420" 
d="M60 363h300v-95h-300v95z" />
    <glyph glyph-name="endash" unicode="&#x2013;" horiz-adv-x="540" 
d="M60 363h420v-95h-420v95z" />
    <glyph glyph-name="emdash" unicode="&#x2014;" horiz-adv-x="780" 
d="M60 363h660v-95h-660v95z" />
    <glyph glyph-name="uni2011" unicode="&#x2011;" horiz-adv-x="420" 
d="M60 363h300v-95h-300v95z" />
    <glyph glyph-name="underscore" unicode="_" horiz-adv-x="660" 
d="M0 -27h660v-95h-660v95z" />
    <glyph glyph-name="hyphen.case" horiz-adv-x="420" 
d="M60 408h300v-95h-300v95z" />
    <glyph glyph-name="endash.case" horiz-adv-x="540" 
d="M60 408h420v-95h-420v95z" />
    <glyph glyph-name="emdash.case" horiz-adv-x="780" 
d="M60 408h660v-95h-660v95z" />
    <glyph glyph-name="quotesinglbase" unicode="&#x201a;" horiz-adv-x="303" 
d="M183 -5c0 -87 -40 -136 -123 -122l7 51c46 -3 63 31 57 76h-64v128h123v-133z" />
    <glyph glyph-name="quotedblbase" unicode="&#x201e;" horiz-adv-x="560" 
d="M203 121c0 -87 -40 -136 -123 -122l7 51c46 -3 63 31 57 76h-64v128h123v-133zM371 121c0 -87 -40 -136 -123 -122l7 51c46 -3 62 31 56 76h-63v128h123v-133z" />
    <glyph glyph-name="quotedblleft" unicode="&#x201c;" horiz-adv-x="510" 
d="M139 588v134h124v-129h-64c-6 -45 11 -79 56 -75l8 -52c-83 -14 -124 36 -124 122zM307 588v134h123v-129h-64c-6 -45 11 -79 57 -75l7 -52c-83 -14 -123 36 -123 122z" />
    <glyph glyph-name="quotedblright" unicode="&#x201d;" horiz-adv-x="510" 
d="M203 588c0 -86 -40 -136 -123 -122l7 52c46 -4 63 30 57 75h-64v129h123v-134zM371 588c0 -86 -40 -136 -123 -122l7 52c46 -4 62 30 56 75h-63v129h123v-134z" />
    <glyph glyph-name="quoteleft" unicode="&#x2018;" horiz-adv-x="284" 
d="M76 587v133h123v-128h-64c-5 -46 11 -79 57 -76l7 -52c-83 -13 -123 36 -123 123z" />
    <glyph glyph-name="quoteright" unicode="&#x2019;" horiz-adv-x="284" 
d="M208 587c0 -87 -40 -136 -123 -123l7 52c46 -3 63 30 57 76h-64v128h123v-133z" />
    <glyph glyph-name="guillemotleft" unicode="&#xab;" horiz-adv-x="586" 
d="M256 94l64 50l-136 171l136 171l-64 51l-176 -222zM460 94l65 50l-137 171l137 171l-65 51l-176 -222z" />
    <glyph glyph-name="guillemotright" unicode="&#xbb;" horiz-adv-x="586" 
d="M126 94l176 221l-176 222l-64 -51l136 -171l-136 -171zM330 94l176 221l-176 222l-64 -51l136 -171l-136 -171z" />
    <glyph glyph-name="guilsinglleft" unicode="&#x2039;" horiz-adv-x="637" 
d="M380 75l-240 240l240 240l57 -58l-182 -182l182 -182z" />
    <glyph glyph-name="guilsinglright" unicode="&#x203a;" horiz-adv-x="638" 
d="M257 75l-57 58l182 182l-182 182l57 58l240 -240z" />
    <glyph glyph-name="quotedbl" unicode="&#x22;" horiz-adv-x="467" 
d="M60 720h120v-180h-120v180zM247 720h120v-180h-120v180z" />
    <glyph glyph-name="quotesingle" unicode="'" horiz-adv-x="260" 
d="M60 720h120v-180h-120v180z" />
    <glyph glyph-name="guillemotleft.case" horiz-adv-x="586" 
d="M256 139l64 50l-136 171l136 171l-64 51l-176 -222zM460 139l65 50l-137 171l137 171l-65 51l-176 -222z" />
    <glyph glyph-name="guillemotright.case" horiz-adv-x="586" 
d="M126 139l176 221l-176 222l-64 -51l136 -171l-136 -171zM330 139l176 221l-176 222l-64 -51l136 -171l-136 -171z" />
    <glyph glyph-name="guilsinglleft.case" horiz-adv-x="637" 
d="M380 120l-240 240l240 240l57 -58l-182 -182l182 -182z" />
    <glyph glyph-name="guilsinglright.case" horiz-adv-x="637" 
d="M257 120l-57 58l182 182l-182 182l57 58l240 -240z" />
    <glyph glyph-name="space" unicode=" " horiz-adv-x="200" 
 />
    <glyph glyph-name="uni00A0" unicode="&#xa0;" horiz-adv-x="200" 
 />
    <glyph glyph-name=".null" horiz-adv-x="500" 
 />
    <glyph glyph-name="uni2060" unicode="&#x2060;" horiz-adv-x="0" 
 />
    <glyph glyph-name="cent" unicode="&#xa2;" horiz-adv-x="576" 
d="M305 173c64 0 98 30 117 85l123 -27c-28 -93 -95 -151 -188 -167v-93h-94v92c-141 19 -222 133 -223 282c1 151 85 263 223 282v93h94v-94c97 -16 166 -77 188 -168l-120 -33c-18 58 -65 92 -120 92c-95 0 -137 -73 -137 -172c0 -103 46 -172 137 -172z" />
    <glyph glyph-name="dollar" unicode="$" horiz-adv-x="600" 
d="M485 322c37 -37 55 -81 55 -135c0 -64 -36 -133 -99 -168c-22 -13 -51 -23 -81 -28v-91h-120v92c-59 14 -110 47 -140 97c-26 39 -40 82 -40 130h122c0 -19 7 -47 21 -65c22 -33 56 -54 95 -54c26 0 59 6 82 24c22 16 33 37 33 67c0 25 -8 44 -38 64
c-48 34 -110 48 -161 76c-37 18 -77 43 -107 84c-21 28 -36 71 -36 113c0 55 25 113 65 149c29 26 65 44 104 52v90h120v-92c48 -13 91 -41 120 -81c29 -39 45 -81 46 -132h-127c0 21 -6 41 -19 62c-19 25 -47 45 -83 45c-29 0 -57 -12 -75 -32c-16 -15 -24 -37 -24 -60
c0 -14 3 -31 13 -46c16 -26 50 -42 90 -59c96 -41 140 -58 184 -102z" />
    <glyph glyph-name="Euro" unicode="&#x20ac;" horiz-adv-x="684" 
d="M465 99c44 -1 89 11 125 37l63 -99c-55 -35 -121 -52 -188 -52c-105 0 -202 42 -262 117c-31 39 -52 81 -65 127h-98v95h81c-1 12 -2 24 -2 36s1 23 2 35h-81v95h97c13 47 34 90 66 129c62 78 159 116 262 116c68 0 133 -17 188 -51l-64 -100c-35 25 -80 38 -124 38
c-66 0 -129 -26 -166 -77c-13 -17 -23 -35 -31 -55h245v-95h-264c-1 -12 -2 -23 -2 -35s1 -24 2 -36h264v-95h-244c7 -19 17 -38 30 -54c37 -51 100 -77 166 -76z" />
    <glyph glyph-name="florin" unicode="&#x192;" horiz-adv-x="752" 
d="M555 735c52 0 102 -14 137 -32l-55 -99c-1 2 -33 17 -73 17c-42 0 -95 -22 -105 -82l-22 -131h184v-95h-200l-19 -113c-21 -139 -97 -215 -210 -215c-45 0 -97 15 -132 31l51 101c15 -8 47 -18 74 -18c53 0 83 42 96 118l16 96h-144v95h160l17 106c21 146 98 221 225 221
z" />
    <glyph glyph-name="uni20B4" unicode="&#x20b4;" horiz-adv-x="670" 
d="M559 480h51v-95h-549l-1 95h363l2 3c10 15 13 32 13 46c0 23 -8 45 -24 60c-18 20 -46 32 -76 32c-36 0 -63 -20 -82 -45c-11 -15 -16 -30 -19 -47h-127c4 44 19 82 46 117c42 57 110 89 183 89c61 0 119 -20 161 -58c39 -36 65 -94 65 -149c0 -16 -2 -32 -6 -48z
M610 335v-94h-367c-15 -15 -20 -31 -20 -50c0 -30 10 -51 33 -67c22 -18 56 -24 82 -24c39 0 72 21 95 54c8 10 13 23 17 37h124c-4 -37 -17 -71 -38 -102c-42 -67 -119 -104 -204 -104c-47 0 -102 13 -137 34c-63 35 -99 104 -99 168c0 19 2 37 7 54h-43v94h550z" />
    <glyph glyph-name="uni20BD" unicode="&#x20bd;" horiz-adv-x="685" 
d="M414 262h-152v-69h235v-95h-235v-98h-120v98h-72v95h72v69h-72v103h72v355h272c14 0 39 -1 58 -4c125 -19 183 -111 183 -230s-59 -200 -183 -220c-19 -3 -45 -4 -58 -4zM262 607v-242h147c14 0 31 1 46 6c60 18 79 60 79 115c0 46 -19 100 -79 116c-14 4 -32 5 -46 5
h-147z" />
    <glyph glyph-name="sterling" unicode="&#xa3;" horiz-adv-x="614" 
d="M270 305v-192h237v-113h-447v113h14c40 0 74 35 74 75v117h-88v113h88v125c0 110 90 192 204 192c104 0 165 -76 202 -182l-108 -36c-20 65 -46 104 -95 104c-48 0 -81 -35 -81 -84v-119h152v-113h-152z" />
    <glyph glyph-name="yen" unicode="&#xa5;" horiz-adv-x="612" 
d="M612 720l-190 -330h89v-95h-144v-100h144v-95h-144v-100h-122v100h-144v95h144v100h-144v95h89l-190 330h141l165 -287l165 287h141z" />
    <glyph glyph-name="plus" unicode="+" horiz-adv-x="572" 
d="M512 408v-95h-178v-179h-95v179h-179v95h179v178h95v-178h178z" />
    <glyph glyph-name="minus" unicode="&#x2212;" horiz-adv-x="540" 
d="M60 408h420v-95h-420v95z" />
    <glyph glyph-name="multiply" unicode="&#xd7;" horiz-adv-x="508" 
d="M447 487l-126 -126l126 -127l-67 -67l-126 127l-127 -127l-67 67l127 127l-126 126l67 66l126 -126l126 126z" />
    <glyph glyph-name="equal" unicode="=" horiz-adv-x="750" 
d="M120 502v-95h510v95h-510zM120 313v-95h510v95h-510z" />
    <glyph glyph-name="notequal" unicode="&#x2260;" horiz-adv-x="750" 
d="M630 407h-161l-69 -94h230v-95h-300l-83 -113l-77 55l43 58h-93v95h163l69 94h-232v95h302l83 113l76 -55l-43 -58h92v-95z" />
    <glyph glyph-name="greater" unicode="&#x3e;" horiz-adv-x="638" 
d="M257 75l-57 58l182 182l-182 182l57 58l240 -240z" />
    <glyph glyph-name="less" unicode="&#x3c;" horiz-adv-x="637" 
d="M380 75l-240 240l240 240l57 -58l-182 -182l182 -182z" />
    <glyph glyph-name="greaterequal" unicode="&#x2265;" horiz-adv-x="750" 
d="M120 167v95l342 99l-342 99v95l510 -157v-74zM630 95h-510v-95h510v95z" />
    <glyph glyph-name="lessequal" unicode="&#x2264;" horiz-adv-x="750" 
d="M630 167l-510 157v74l510 157v-95l-342 -99l342 -99v-95zM120 95v-95h510v95h-510z" />
    <glyph glyph-name="plusminus" unicode="&#xb1;" horiz-adv-x="600" 
d="M348 428h192v-95h-192v-113h-95v113h-193v95h193v112h95v-112zM60 65v94h480v-94h-480z" />
    <glyph glyph-name="asciitilde" unicode="~" horiz-adv-x="716" 
d="M592 396c8 -37 4 -83 -13 -112c-18 -29 -48 -51 -80 -58c-47 -11 -94 0 -139 23c-38 17 -72 42 -105 39s-38 -27 -30 -53h-101c-8 36 -4 82 13 112c18 30 48 51 80 58c47 11 94 0 139 -23c37 -17 71 -42 106 -39c31 3 37 28 28 53h102z" />
    <glyph glyph-name="asciicircum" unicode="^" horiz-adv-x="680" 
d="M105 495l240 240l241 -240l-58 -57l-183 182l-182 -182z" />
    <glyph glyph-name="percent" unicode="%" horiz-adv-x="900" 
d="M240 375c-99 0 -180 80 -180 180c0 98 84 180 180 180c99 0 180 -80 180 -180s-81 -180 -180 -180zM170 0l-80 80l640 640l80 -81zM240 478c42 0 77 35 77 77s-35 77 -77 77s-77 -35 -77 -77s35 -77 77 -77zM660 -15c-99 0 -180 80 -180 180c0 98 84 180 180 180
c99 0 180 -80 180 -180s-81 -180 -180 -180zM660 88c42 0 78 35 78 77s-36 77 -78 77c-41 0 -77 -35 -77 -77s36 -77 77 -77z" />
    <glyph glyph-name="greater.case" horiz-adv-x="637" 
d="M257 120l-57 58l182 182l-182 182l57 58l240 -240z" />
    <glyph glyph-name="less.case" horiz-adv-x="637" 
d="M380 120l-240 240l240 240l57 -58l-182 -182l182 -182z" />
    <glyph glyph-name="arrowup" unicode="&#x2191;" horiz-adv-x="720" 
d="M600 491l-57 -57l-136 136l1 -570h-95v570l-135 -136l-58 57l240 241z" />
    <glyph glyph-name="arrowdown" unicode="&#x2193;" horiz-adv-x="720" 
d="M543 216l57 -57l-240 -241l-240 241l58 57l135 -136v570h95l-1 -570z" />
    <glyph glyph-name="carriagereturn" unicode="&#x21b5;" horiz-adv-x="819" 
d="M665 720h94v-453h-456l134 -134l-57 -58l-240 240l240 240l57 -58l-134 -134h362v357z" />
    <glyph glyph-name="arrowright.case" horiz-adv-x="1012" 
d="M632 563l240 -241l-240 -240l-57 58l135 135l-570 1v94h569l-134 135z" />
    <glyph glyph-name="arrowleft.case" horiz-adv-x="1012" 
d="M872 370v-94l-570 -1l135 -135l-57 -58l-240 240l240 241l57 -58l-134 -135h569z" />
    <glyph glyph-name="at" unicode="@" horiz-adv-x="916" 
d="M836 270c-2 -71 -21 -136 -66 -175c-23 -21 -57 -33 -88 -33c-29 0 -63 9 -86 24c-15 9 -28 21 -37 35c-30 -23 -71 -35 -111 -35c-43 0 -89 15 -121 43c-43 38 -58 88 -60 141c2 56 19 104 60 141c34 28 78 43 123 43c34 0 74 -11 102 -31v17h74l-1 -213
c0 -24 4 -41 13 -53c8 -11 24 -17 40 -17c15 0 26 6 35 18c17 22 22 61 21 95c1 65 -13 126 -46 175c-50 71 -138 105 -229 105c-68 0 -135 -19 -185 -57c-69 -50 -96 -142 -93 -234c2 -68 19 -132 60 -180c55 -64 137 -90 220 -90c41 0 83 8 120 24l32 -90
c-48 -19 -102 -28 -156 -28c-117 0 -222 37 -293 123c-58 67 -82 154 -84 238c-5 122 41 245 136 315c63 48 153 74 235 74c135 0 247 -47 317 -144c48 -70 66 -152 68 -231zM536 270c0 22 -2 39 -11 56c-12 21 -40 33 -67 33c-27 1 -49 -7 -65 -21c-17 -17 -25 -42 -24 -68
c-1 -26 7 -51 24 -67c18 -17 40 -22 62 -22c33 0 58 12 70 33c9 17 11 34 11 56z" />
    <glyph glyph-name="ampersand" unicode="&#x26;" horiz-adv-x="668" 
d="M576 378v-131c0 -36 -2 -72 -7 -94l89 -82l-77 -83l-70 66c-34 -32 -76 -52 -117 -60c-30 -7 -57 -9 -85 -9c-80 0 -155 23 -203 74c-38 42 -54 92 -56 149c0 55 16 109 50 149c13 16 29 28 45 38c-39 44 -59 81 -59 137c0 84 48 156 126 185c34 13 69 16 103 16
c63 0 124 -17 165 -60c25 -25 43 -57 52 -89l-119 -26c-5 15 -14 29 -25 39c-21 19 -49 24 -76 24c-21 0 -40 -4 -57 -12c-32 -16 -48 -41 -48 -78c0 -34 14 -51 33 -71c12 -13 30 -30 49 -47l180 -167c1 12 1 30 1 44v88h106zM424 136l-190 175c-18 -7 -32 -18 -42 -30
c-14 -18 -20 -40 -20 -67c0 -30 10 -53 25 -72c25 -30 75 -42 116 -42c21 0 39 1 57 7c24 8 41 18 54 29z" />
    <glyph glyph-name="copyright" unicode="&#xa9;" horiz-adv-x="906" 
d="M453 -68c229 0 413 185 413 413s-184 413 -413 413c-228 0 -413 -185 -413 -413s185 -413 413 -413zM453 45c-166 0 -300 134 -300 300s134 300 300 300s300 -134 300 -300s-134 -300 -300 -300zM642 428l-92 -24c-6 18 -16 36 -33 49c-16 13 -36 19 -56 19
c-32 0 -58 -13 -76 -36c-19 -25 -24 -58 -24 -91s5 -65 24 -90c17 -24 44 -36 76 -36c20 0 41 3 58 17c15 13 22 27 29 45l94 -20c-12 -37 -35 -73 -66 -95c-35 -25 -65 -34 -115 -34c-65 0 -114 21 -149 66c-35 44 -49 93 -49 147c0 56 15 107 49 146c37 45 85 67 151 67
c42 0 70 -6 104 -26c36 -22 64 -57 75 -104z" />
    <glyph glyph-name="registered" unicode="&#xae;" horiz-adv-x="655" 
d="M327 788c142 0 258 -116 258 -257c0 -142 -116 -258 -258 -258c-141 0 -257 116 -257 258c0 141 116 257 257 257zM328 708c-98 0 -178 -79 -178 -177c0 -97 80 -178 178 -178c97 0 178 81 178 178c0 98 -81 177 -178 177zM245 650h100c49 0 79 -32 81 -79
c0 -28 -14 -54 -42 -69l44 -89h-49l-39 81h-52v-81h-43v237zM288 608v-73h58c20 0 35 15 35 36c0 24 -13 37 -35 37h-58z" />
    <glyph glyph-name="trademark" unicode="&#x2122;" horiz-adv-x="920" 
d="M60 643v77h335v-77h-125v-298h-85v298h-125zM792 720h68v-375h-81v216l-93 -149h-47l-92 149v-216h-82v375h69l129 -202z" />
    <glyph glyph-name="degree" unicode="&#xb0;" horiz-adv-x="450" 
d="M210 375c-99 0 -180 80 -180 180c0 98 84 180 180 180c99 0 180 -80 180 -180s-81 -180 -180 -180zM210 478c42 0 77 35 77 77s-35 77 -77 77s-77 -35 -77 -77s35 -77 77 -77z" />
    <glyph glyph-name="bar" unicode="|" horiz-adv-x="300" 
d="M90 720h120v-720h-120v720z" />
    <glyph glyph-name="uni2116" unicode="&#x2116;" horiz-adv-x="1132" 
d="M902 375c-99 0 -180 80 -180 180c0 98 84 180 180 180c99 0 180 -80 180 -180s-81 -180 -180 -180zM192 720l334 -507v507h122v-720h-122l-334 508v-508h-122v720h122zM902 478c41 0 77 35 77 77s-36 77 -77 77c-42 0 -77 -35 -77 -77s35 -77 77 -77zM752 331h300v-94
h-300v94z" />
    <glyph glyph-name="at.case" horiz-adv-x="916" 
d="M836 360c-2 -71 -21 -136 -66 -175c-23 -21 -57 -33 -88 -33c-29 0 -63 9 -86 24c-15 9 -28 21 -37 35c-30 -23 -71 -35 -111 -35c-43 0 -89 15 -121 43c-43 38 -58 88 -60 141c2 56 19 104 60 141c34 28 78 43 123 43c34 0 74 -11 102 -31v17h74l-1 -213
c0 -24 4 -41 13 -53c8 -11 24 -17 40 -17c15 0 26 6 35 18c17 22 22 61 21 95c1 65 -13 126 -46 175c-50 71 -138 105 -229 105c-68 0 -135 -19 -185 -57c-69 -50 -96 -142 -93 -234c2 -68 19 -132 60 -180c55 -64 137 -89 220 -89c41 0 83 7 120 23l32 -90
c-48 -19 -102 -28 -156 -28c-117 0 -222 38 -293 123c-58 67 -82 154 -84 238c-5 122 41 245 136 315c63 48 153 74 235 74c135 0 247 -47 317 -144c48 -70 66 -152 68 -231zM536 360c0 22 -2 39 -11 56c-12 21 -40 33 -67 33c-27 1 -49 -7 -65 -21c-17 -17 -25 -42 -24 -68
c-1 -26 7 -51 24 -67c18 -17 40 -22 62 -22c33 0 58 12 70 33c9 17 11 34 11 56z" />
    <glyph glyph-name="copyright.case" horiz-adv-x="906" 
d="M453 22c229 0 413 185 413 413s-184 413 -413 413c-228 0 -413 -185 -413 -413s185 -413 413 -413zM453 135c-166 0 -300 134 -300 300s134 300 300 300s300 -134 300 -300s-134 -300 -300 -300zM642 519l-92 -25c-6 18 -16 36 -33 49c-16 14 -36 20 -56 20
c-32 0 -58 -13 -76 -37c-19 -25 -24 -58 -24 -91s5 -65 24 -90c17 -23 44 -36 76 -36c20 0 41 3 58 17c15 13 22 27 29 46l94 -20c-12 -38 -35 -74 -66 -96c-35 -25 -65 -34 -115 -34c-65 0 -114 21 -149 66c-35 44 -49 93 -49 147c0 56 15 107 49 146c37 45 85 68 151 68
c42 0 70 -7 104 -27c36 -22 64 -57 75 -103z" />
    <glyph glyph-name="nonmarkingreturn" horiz-adv-x="685" 
 />
    </font>
</defs>
</svg>
